Важное объявление!
У Нас Все раздачи мультитрекерные, при нуле пиров в релизах, можете смело вставать на закачку!
 
Автор Сообщение

HUNTER

Стаж:
4 года 4 месяца
Сообщений:
56749

Репутация: 101

[+] [-]
Вне форума [Профиль] [ЛС]

Майами Блюз / Miami Blues
«Настоящий значок, настоящий пистолет, фальшивый полицейский»
Год выпуска: 1989
Страна: США
Производство: Tristes Tropiques
Жанр: Триллер, драма, криминал
Продолжительность: 01:36:54
Перевод 1: Профессиональный (дублированный) | Варус Видео
Перевод 2: Профессиональный (многоголосый закадровый) | Лазер Видео
Перевод 3: Профессиональный (многоголосый закадровый) | НТВ
Перевод 4: Профессиональный (двухголосый закадровый) | НТВ+ (Головчанский и Плетнёва)
Перевод 5: Профессиональный (двухголосый закадровый) | НТВ+ (Симанов и Казначеева)
Перевод 6: Авторский (одноголосый закадровый) | Михалёв
Оригинальная аудиодорожка: Английский
Субтитры: Английские
Режиссёр: Джордж Эрмитаж
В ролях: Фред Уорд, Алек Болдуин, Дженнифер Джейсон Ли, Сесилия Перес-Червера, Джорджи Крэнфорд, Эдвард Саксон, Хосе Перез, Обба Бабатунде, Чарльз Нэпьер, Мэтт Ингерсолл и др.
Описание: Фред только что откинулся после очередной отсидки и прибыл в Майами - жить по-новому. Он находит себе подругу, молодую проститутку, полностью разделяющую его желания. На поиски уголовника отправляется старый опытный полицейский - сержант Ваггонер.


Release Group: SbR
Сэмпл
Качество: BDRip 720p
Формат: MKV
Видео: MPEG-4 AVC: ~6650 kbps / 1280x694 / 23.976 fps / 1.85:1
Аудио: Russian: AC3 / 2.0 / 48 kHz / 256 kbps | Дубляж
Аудио: Russian: AC3 / 2.0 / 48 kHz / 384 kbps | Лазер Видео
Аудио: Russian: AC3 / 2.0 / 48 kHz / 192 kbps | НТВ
Аудио: Russian: AC3 / 2.0 / 48 kHz / 384 kbps | НТВ+ (Головчанский и Плетнёва)
Аудио: Russian: AC3 / 2.0 / 48 kHz / 384 kbps | НТВ+ (Симанов и Казначеева)
Аудио: Russian: DTS / 2.0 / 48 kHz / 1509 kbps | Михалёв
Аудио: Ukrainian: AC3 / 2.0 / 48 kHz / 192 kbps | KIHO
Аудио: Ukrainian: AC3 / 2.0 / 48 kHz / 192 kbps | Enter-Film
Аудио: English: FLAC / 2.0 / 48 kHz / 1383 kbps | Оригинальный

MediaInfoXP

GeneralUnique ID : 238498676358168620027272585755096608021 (0xB36D2C9B9D5C3800A16B9579BA696D15)Complete name : F:\Miami.Blues.1989.720p.BluRay.6xRus.2xUkr.Eng.x264-SbR.mkvFormat : MatroskaFormat version : Version 4 / Version 2File size : 7.81 GiBDuration : 1h 36mnOverall bit rate mode : VariableOverall bit rate : 11.5 MbpsEncoded date : UTC 2015-07-27 06:46:04Writing application : mkvmerge v8.2.0 ('World of Adventure') 64bitWriting library : libebml v1.3.1 + libmatroska v1.4.2Attachements : cover.jpgDURATION : 01:35:26.262000000NUMBER_OF_FRAMES : 1090NUMBER_OF_BYTES : 33854_STATISTICS_WRITING_APP : mkvmerge v8.2.0 ('World of Adventure') 64bit_STATISTICS_WRITING_DATE_UTC : 2015-07-27 06:46:04_STATISTICS_TAGS : BPS DURATION NUMBER_OF_FRAMES NUMBER_OF_BYTES
VideoID : 1Format : AVCFormat/Info : Advanced Video CodecFormat profile : High@L4.1Format settings, CABAC : YesFormat settings, ReFrames : 9 framesCodec ID : V_MPEG4/ISO/AVCDuration : 1h 36mnWidth : 1 280 pixelsHeight : 694 pixelsDisplay aspect ratio : 1.85:1Frame rate mode : ConstantFrame rate : 23.976 fpsColor space : YUVChroma subsampling : 4:2:0Bit depth : 8 bitsScan type : ProgressiveWriting library : x264 core 146 r0+2586 e393126 t_mod_Custom [8-bit@all X86_64]Encoding settings : cabac=1 / ref=9 / deblock=1:-3:-3 / analyse=0x3:0x133 / me=umh / subme=10 / psy=1 / fade_compensate=0.00 / psy_rd=0.95:0.05 / mixed_ref=1 / me_range=24 / chroma_me=1 / trellis=2 / 8x8dct=1 / cqm=0 / deadzone=21,11 / fast_pskip=0 / chroma_qp_offset=-3 / threads=6 / lookahead_threads=1 / sliced_threads=0 / nr=0 / decimate=1 / interlaced=0 / bluray_compat=0 / constrained_intra=0 / fgo=0 / bframes=12 / b_pyramid=2 / b_adapt=2 / b_bias=0 / direct=3 / weightb=1 / open_gop=0 / weightp=2 / keyint=250 / keyint_min=23 / scenecut=40 / intra_refresh=0 / rc_lookahead=60 / rc=crf / mbtree=0 / crf=17.0000 / qcomp=0.60 / qpmin=0:0:0 / qpmax=69:69:69 / qpstep=4 / vbv_maxrate=62500 / vbv_bufsize=78125 / crf_max=0.0 / nal_hrd=none / filler=0 / ip_ratio=1.40 / pb_ratio=1.30 / aq=1:0.80 / aq-sensitivity=10.00 / aq-factor=1.00:1.00:1.00 / aq2=0 / aq3=0Language : EnglishDefault : YesForced : NoColor range : LimitedColor primaries : BT.709Transfer characteristics : BT.709Matrix coefficients : BT.709DURATION : 01:36:54.517000000NUMBER_OF_FRAMES : 139409NUMBER_OF_BYTES : 4833830214_STATISTICS_WRITING_APP : mkvmerge v8.2.0 ('World of Adventure') 64bit_STATISTICS_WRITING_DATE_UTC : 2015-07-27 06:46:04_STATISTICS_TAGS : BPS DURATION NUMBER_OF_FRAMES NUMBER_OF_BYTES
Audio #1ID : 2Format : AC-3Format/Info : Audio Coding 3Mode extension : CM (complete main)Format settings, Endianness : BigCodec ID : A_AC3Duration : 1h 36mnBit rate mode : ConstantBit rate : 256 KbpsChannel(s) : 2 channelsChannel positions : Front: L RSampling rate : 48.0 KHzCompression mode : LossyStream size : 177 MiB (2%)Title : Дубляж, Варус ВидеоLanguage : RussianDefault : YesForced : No
Audio #2ID : 3Format : AC-3Format/Info : Audio Coding 3Mode extension : CM (complete main)Format settings, Endianness : BigCodec ID : A_AC3Duration : 1h 36mnBit rate mode : ConstantBit rate : 384 KbpsChannel(s) : 2 channelsChannel positions : Front: L RSampling rate : 48.0 KHzCompression mode : LossyStream size : 266 MiB (3%)Title : Многоголосый закадровый, Лазер ВидеоLanguage : RussianDefault : NoForced : No
Audio #3ID : 4Format : AC-3Format/Info : Audio Coding 3Mode extension : CM (complete main)Format settings, Endianness : BigCodec ID : A_AC3Duration : 1h 36mnBit rate mode : ConstantBit rate : 192 KbpsChannel(s) : 2 channelsChannel positions : Front: L RSampling rate : 48.0 KHzCompression mode : LossyStream size : 133 MiB (2%)Title : Многоголосый закадровый, НТВLanguage : RussianDefault : NoForced : No
Audio #4ID : 5Format : AC-3Format/Info : Audio Coding 3Mode extension : CM (complete main)Format settings, Endianness : BigCodec ID : A_AC3Duration : 1h 36mnBit rate mode : ConstantBit rate : 384 KbpsChannel(s) : 2 channelsChannel positions : Front: L RSampling rate : 48.0 KHzCompression mode : LossyStream size : 266 MiB (3%)Title : Двухголосый закадровый, НТВ+Language : RussianDefault : NoForced : No
Audio #5ID : 6Format : AC-3Format/Info : Audio Coding 3Mode extension : CM (complete main)Format settings, Endianness : BigCodec ID : A_AC3Duration : 1h 36mnBit rate mode : ConstantBit rate : 384 KbpsChannel(s) : 2 channelsChannel positions : Front: L RSampling rate : 48.0 KHzCompression mode : LossyStream size : 266 MiB (3%)Title : Двухголосый закадровый, НТВ+Language : RussianDefault : NoForced : No
Audio #6ID : 7Format : DTSFormat/Info : Digital Theater SystemsMode : 16Format settings, Endianness : BigCodec ID : A_DTSDuration : 1h 36mnBit rate mode : ConstantBit rate : 1 509 KbpsChannel(s) : 2 channelsChannel positions : Front: L RSampling rate : 48.0 KHzBit depth : 24 bitsCompression mode : LossyStream size : 1.02 GiB (13%)Title : Одноголосый закадровый, А.МихалевLanguage : RussianDefault : NoForced : No
Audio #7ID : 8Format : AC-3Format/Info : Audio Coding 3Mode extension : CM (complete main)Format settings, Endianness : BigCodec ID : A_AC3Duration : 1h 36mnBit rate mode : ConstantBit rate : 192 KbpsChannel(s) : 2 channelsChannel positions : Front: L RSampling rate : 48.0 KHzCompression mode : LossyStream size : 133 MiB (2%)Title : Многоголосый закадровый, KIHOLanguage : UkrainianDefault : NoForced : No
Audio #8ID : 9Format : AC-3Format/Info : Audio Coding 3Mode extension : CM (complete main)Format settings, Endianness : BigCodec ID : A_AC3Duration : 1h 36mnBit rate mode : ConstantBit rate : 192 KbpsChannel(s) : 2 channelsChannel positions : Front: L RSampling rate : 48.0 KHzCompression mode : LossyStream size : 133 MiB (2%)Title : Многоголосый закадровый, Enter-FilmLanguage : UkrainianDefault : NoForced : No
Audio #9ID : 10Format : FLACFormat/Info : Free Lossless Audio CodecCodec ID : A_FLACDuration : 1h 36mnBit rate mode : VariableChannel(s) : 2 channelsSampling rate : 48.0 KHzBit depth : 24 bitsTitle : 1383 KbpsWriting library : libFLAC 1.2.1 (UTC 2007-09-17)Language : EnglishDefault : NoForced : No
TextID : 11Format : UTF-8Codec ID : S_TEXT/UTF8Codec ID/Info : UTF-8 Plain TextLanguage : EnglishDefault : NoForced : No
Menu00:00:00.000 : en:00:00:00.00000:05:41.507 : en:00:05:41.50700:12:35.336 : en:00:12:35.33600:18:57.551 : en:00:18:57.55100:23:57.519 : en:00:23:57.51900:26:40.346 : en:00:26:40.34600:33:25.626 : en:00:33:25.62600:38:54.498 : en:00:38:54.49800:46:49.306 : en:00:46:49.30600:53:54.688 : en:00:53:54.68800:59:05.625 : en:00:59:05.62501:06:21.936 : en:01:06:21.93601:11:54.059 : en:01:11:54.05901:20:06.301 : en:01:20:06.30101:27:15.895 : en:01:27:15.89501:33:33.939 : en:01:33:33.939

Скриншот с названием фильма

Скриншоты


_________________
Показать сообщения:    

Текущее время: Сегодня 01:38

Часовой пояс: GMT



Вы не можете начинать темы
Вы не можете отвечать на сообщения
Вы не можете редактировать свои сообщения
Вы не можете удалять свои сообщения
Вы не можете голосовать в опросах
Вы не можете прикреплять файлы к сообщениям
Вы не можете скачивать файлы