Важное объявление!
У Нас Все раздачи мультитрекерные, при нуле пиров в релизах, можете смело вставать на закачку!
 
Автор Сообщение

HUNTER

Стаж:
4 года 4 месяца
Сообщений:
56798

Репутация: 101

[+] [-]
Вне форума [Профиль] [ЛС]

Мадам Бовари / Грехи мадам Бовари / Die nackte Bovary / Madame Bovary / The Sins of Madame Bovary / I peccati di Madame Bovary
Страна: Германия, Италия
Студия: Devon Film, Roger Fritz Filmproduktion, Tritone Cinematografica (West Germany | Italy)
Жанр: драма, экранизация.
Год выпуска: 1969
Продолжительность: 01:31:06
Перевод: Одноголосый закадровый ССК+
Cубтитры: английские
Оригинальная аудиодорожка: нет
Режиссер: Ганс Шотт-Шёбенгер / Hans Schott-Schoebinger
В ролях: Эдвиж Фенек, Герхард Ридманн, Франко Рессель, Петер Карстен, Джанни Деи, Россана Ровере, Франко Борелли, Патриция Аджутори, Мария Пиа Конте, Эдда Ферронао, Луиджи Бонос, Джимми Пьяцца, Польди Варашиц
Описание: Деревенская девушка Эмма Руо выходит замуж за недавно овдовевшего врача Шарля Бовари, но быстро охладевает к нему и едва терпит его искреннюю любовь к себе. Бовари удовлетворен положением обычного провинциального врача, Эмма же стремится к большему..
Доп. информация: Русская звуковая дорожка взята с этой раздачи http://rutracker.org/forum/viewtopic.php?t=4385453 автору большое спасибо.
При пересборе двд были использованы программы:
PgcDemux - разделение компонентов диска на файлы
Muxman - мультиплексирование и авторинг DVD
VobBlanker - реавторинг DVD

Скрин завершения проекта

Бонусы: Галерея.
Сэмпл: http://sendfile.su/1072172
Тип релиза: DVD5 (Custom)
Контейнер: DVD-Video
Видео: NTSC 16:9 (720x480) VBR Auto Pan&Scan, Auto Letterboxed
Аудио: Russian (Dolby AC3, 192 Кбит/сек, 2 ch)
Аудио 2: Italiano (Dolby AC3, 256 Кбит/сек2 ch)
Формат субтитров: softsub (SRT)

DVDInfo

Size: 4.15 Gb ( 4 353 476 KBytes ) - DVD-5
Enabled regions: 1, 2, 3, 4, 5, 6, 7, 8
VTS_01 :
Play Length: 00:00:15
Video: NTSC 16:9 (720x480) VBR, Auto Pan&Scan, Auto Letterboxed
VTS_02 :
Play Length: 01:31:06
Video: NTSC 16:9 (720x480) VBR, Auto Pan&Scan, Auto Letterboxed
Audio:
Russian (Dolby AC3, 2 ch)
Italiano (Dolby AC3, 2 ch)
Subtitles:
English
VTS_03 :
Play Length: 00:02:02
Video: NTSC 16:9 (720x480) VBR, Auto Pan&Scan
VTS_04 :
Play Length: 00:00:09
Video: NTSC 16:9 (720x480) VBR, Auto Pan&Scan
Audio:
Italiano (Dolby AC3, 2 ch)
Menu Video:
NTSC 16:9 (720x480) VBR
Auto Pan&Scan, Auto Letterboxed
Menu English Language Unit :
Root Menu
Subpicture Menu
Chapter (PTT) Menu

MediaInfo

Общее
Полное имя : I:\Die nackte Bovary_1969\VIDEO_TS\VTS_02_1.VOB
Формат : MPEG-PS
Размер файла : 1024 Мбайт
Продолжительность : 24 м.
Режим общего битрейта : Переменный
Общий поток : 5930 Кбит/сек
Видео
Идентификатор : 224 (0xE0)
Формат : MPEG Video
Версия формата : Version 2
Профиль формата : Main@Main
Параметр BVOP формата : Да
Параметр матрицы формата : Выборочная
Параметр GOP формата : M=3, N=12
Продолжительность : 24 м.
Вид битрейта : Переменный
Битрейт : 5364 Кбит/сек
Максимальный битрейт : 7500 Кбит/сек
Ширина : 720 пикселей
Высота : 480 пикселей
Соотношение сторон : 16:9
Частота кадров : 23,976 кадра/сек
Стандарт вещания : NTSC
Цветовое пространство : YUV
Субдискретизация насыщенности : 4:2:0
Битовая глубина : 8 бит
Тип развёртки : Прогрессивная
Порядок развёртки : 2:3 Pulldown
Метод сжатия : С потерями
Бит/(Пиксели*Кадры) : 0.647
Размер потока : 926 Мбайт (90%)
Основные цвета : BT.601 NTSC
Характеристики трансфера : BT.601
Коэффициенты матрицы : BT.601
Аудио #1
Идентификатор : 189 (0xBD)-128 (0x80)
Формат : AC-3
Формат/Информация : Audio Coding 3
Расширение режима : CM (complete main)
Параметр Endianness формата : Big
Режим смешивания : DVD-Video
Продолжительность : 24 м.
Вид битрейта : Постоянный
Битрейт : 192 Кбит/сек
Каналы : 2 канала
Расположение каналов : Front: L R
Частота : 48,0 КГц
Битовая глубина : 16 бит
Метод сжатия : С потерями
Размер потока : 33,1 Мбайт (3%)
Аудио #2
Идентификатор : 189 (0xBD)-129 (0x81)
Формат : AC-3
Формат/Информация : Audio Coding 3
Расширение режима : CM (complete main)
Параметр Endianness формата : Big
Режим смешивания : DVD-Video
Продолжительность : 24 м.
Вид битрейта : Постоянный
Битрейт : 256 Кбит/сек
Каналы : 2 канала
Расположение каналов : Front: L R
Частота : 48,0 КГц
Битовая глубина : 16 бит
Метод сжатия : С потерями
Размер потока : 44,2 Мбайт (4%)
Текст
Идентификатор : 189 (0xBD)-32 (0x20)
Формат : RLE
Формат/Информация : Run-length encoding
Режим смешивания : DVD-Video
Меню

Постеры и обложка

Скриншоты меню


_________________
Показать сообщения:    

Текущее время: Сегодня 07:47

Часовой пояс: GMT



Вы не можете начинать темы
Вы не можете отвечать на сообщения
Вы не можете редактировать свои сообщения
Вы не можете удалять свои сообщения
Вы не можете голосовать в опросах
Вы не можете прикреплять файлы к сообщениям
Вы не можете скачивать файлы