Важное объявление!
У Нас Все раздачи мультитрекерные, при нуле пиров в релизах, можете смело вставать на закачку!
 
Автор Сообщение

HUNTER

Стаж:
4 года 4 месяца
Сообщений:
56790

Репутация: 101

[+] [-]
Вне форума [Профиль] [ЛС]

Магия слов: История Дж.К. Роулинг / Magic Beyond Words: The JK Rowling Story
Страна: США
Студия: Commotion Pictures, Lifetime Television, Media Max Productions
Жанр: драма, биография
Год выпуска: 2011
Продолжительность: 01:22:22
Перевод: Профессиональный (многоголосый закадровый) Amedia
Cубтитры: русские
Оригинальная аудиодорожка: английский
Режиссер: Пол А. Кауфман / Paul A. Kaufman
В ролях: Поппи Монтгомери, Эмили Холмс, Антонио Цупо, Джанет Киддер, Мэдисон Дежарле, Энди Мэтон, Мари Уэст, Лиза Нортон, Пол МакДжиллион
Описание: История жизни автора романов о Гарри Поттере. От скромного детства до феноменального успеха ее первой книги. От пособия по безработице до самой богатой писательницы в истории. Чудеса случаются не только в сказках.
Сэмпл: http://multi-up.com/1017344
Тип релиза: HDTV 1080i
Контейнер: TS
Видео: AVC, 1920х1080, 16:9, 6692 Кбит/сек, 25 fps
Аудио: (русский) MPEG Audio, 192 Кбит/сек, 48 КГц, 2 канала
Аудио 2: (английский) MPEG Audio, 192 Кбит/сек, 48 КГц, 2 канала
Формат субтитров: Teletext Sub Page 888

MediaInfo

Общее
Идентификатор : 16 (0x10)
Полное имя : Magic Beyond Words The JK Rowling Story_HD.ts
Формат : MPEG-TS
Размер файла : 4,52 Гбайт
Продолжительность : 1 ч. 22 м.
Режим общего битрейта : Переменный
Общий поток : 7856 Кбит/сек
Видео
Идентификатор : 1812 (0x714)
Идентификатор меню : 812 (0x32C)
Формат : AVC
Формат/Информация : Advanced Video Codec
Профиль формата : High@L4.0
Параметр CABAC формата : Да
Параметр ReFrames формата : 4 кадра
Идентификатор кодека : 27
Продолжительность : 1 ч. 22 м.
Битрейт : 6692 Кбит/сек
Ширина : 1920 пикселей
Высота : 1080 пикселей
Соотношение сторон : 16:9
Частота кадров : 25,000 кадров/сек
Стандарт вещания : PAL
Цветовое пространство : YUV
Субдискретизация насыщенности : 4:2:0
Битовая глубина : 8 бит
Тип развёртки : MBAFF
Бит/(Пиксели*Кадры) : 0.129
Размер потока : 3,85 Гбайт (85%)
Основные цвета : BT.709
Характеристики трансфера : BT.709
Коэффициенты матрицы : BT.709
Аудио #1
Идентификатор : 2812 (0xAFC)
Идентификатор меню : 812 (0x32C)
Формат : MPEG Audio
Версия формата : Version 1
Профиль формата : Layer 2
Идентификатор кодека : 4
Продолжительность : 1 ч. 22 м.
Вид битрейта : Постоянный
Битрейт : 192 Кбит/сек
Каналы : 2 канала
Частота : 48,0 КГц
Метод сжатия : С потерями
Задержка видео : 273 мс.
Размер потока : 113 Мбайт (2%)
Язык : std
Язык, дополнительно : Clean effects
Аудио #2
Идентификатор : 3812 (0xEE4)
Идентификатор меню : 812 (0x32C)
Формат : MPEG Audio
Версия формата : Version 1
Профиль формата : Layer 2
Идентификатор кодека : 4
Продолжительность : 1 ч. 22 м.
Вид битрейта : Постоянный
Битрейт : 192 Кбит/сек
Каналы : 2 канала
Частота : 48,0 КГц
Метод сжатия : С потерями
Задержка видео : 273 мс.
Размер потока : 113 Мбайт (2%)
Язык : English
Язык, дополнительно : Clean effects
Текст
Идентификатор : 63 (0x3F)-100
Идентификатор меню : 812 (0x32C)
Формат : Teletext
Меню
Идентификатор : 812 (0x32C)
Идентификатор меню : 812 (0x32C)
Продолжительность : 1 ч. 22 м.
Язык : / std / English / std

Скриншоты




_________________
Показать сообщения:    

Текущее время: Сегодня 12:08

Часовой пояс: GMT



Вы не можете начинать темы
Вы не можете отвечать на сообщения
Вы не можете редактировать свои сообщения
Вы не можете удалять свои сообщения
Вы не можете голосовать в опросах
Вы не можете прикреплять файлы к сообщениям
Вы не можете скачивать файлы