Важное объявление!
У Нас Все раздачи мультитрекерные, при нуле пиров в релизах, можете смело вставать на закачку!
 
Автор Сообщение

HUNTER

Стаж:
4 года 4 месяца
Сообщений:
56734

Репутация: 101

[+] [-]
Вне форума [Профиль] [ЛС]

Лягушки / Frogs
Страна: США
Студия: American International Pictures
Жанр: ужасы, фантастика
Год выпуска: 1972
Продолжительность: 01:30:02
Перевод: Одноголосый закадровый Horror Maker
Cубтитры: французские
Оригинальная аудиодорожка: английский
Режиссер: Джордж МакКован / George McCowan
В ролях: Рэй Милланд, Сэм Эллиотт, Адам Роарк, Джуди Пейс, Джоан Ван Арк
Описание: Молодой журналист, проводящий расследование по поводу загрязнения окружающей среды, оказывается в доме Джейсона Крокетта на острове юга США. Крокетт рассказывает ему, что болото поблизости наводнено ящерицами и амфибиями. Количество пресмыкающихся все увеличивается, животные кажутся взбунтовавшимися. Журналисту удается вовремя убежать, а Крокетт остается в своем доме в окружении бесчисленного количества лягушек…
Поставленный в стиле «Десяти негритят», фильм еще больше увеличивает число жестоких и безжалостных смертей. Фильм ужасов с экологическим оттенком. Природа снова мстит человеку за жестокое обращение с ней. Если не брать в расчет фильм «Птицы» (1963) Альфреда Хичкока, то «Лягушки» производят не менее сильное впечатление, чем другие фильмы про животных-убийц. Самый оригинальный момент картины, когда в роли убийцы выступает черепаха! Трудно понять, как прыгнувшие на спину взрослого человека лягушки, могут убить его. Ведь у них нет ножей! Посмотрите другой «шедевр» в стиле «Greenpeace»-«Годзилла против монстра из смога» (1971). Большая часть из пятисот флоридских лягушек и ста гигантских южноамериканских жаб, купленных для съемок, сбежала во время съемочного периода.
Доп. информация: Русская звуковая дорожка взята с этой раздачи http://rutracker.org/forum/viewtopic.php?t=4029760 автору большое спасибо.
При пересборе двд были использованы программы:
PgcDemux - разделение компонентов диска на файлы
Muxman - мультиплексирование и авторинг DVD
VobBlanker - реавторинг DVD

Скрин завершения проекта

Бонусы: Трейлер.
Сэмпл: http://sendfile.su/1087704
Тип релиза: DVD5 (Custom)
Контейнер: DVD-Video
Видео: NTSC 16:9 (720x480) VBR Auto Pan&Scan
Аудио: Russian (Dolby AC3, 192 Кбит/сек, 2 ch)
Аудио 2: English (Dolby AC3, 192 Кбит/сек, 2 ch)
Формат субтитров: softsub (SRT)

DVDInfo

Size: 4.34 Gb ( 4 546 914 KBytes ) - DVD-5
Enabled regions: 1, 2, 3, 4, 5, 6, 7, 8
VTS_01 :
Play Length: 01:30:01+00:00:01
Video: NTSC 16:9 (720x480) VBR, Auto Pan&Scan
Audio:
Russian (Dolby AC3, 2 ch)
English (Dolby AC3, 2 ch)
Subtitles:
Francais
VTS_02 :
Play Length: 00:00:45+00:02:13
Video: NTSC 4:3 (720x480) VBR
Audio:
English (Dolby AC3, 2 ch)
VTS_03 :
Play Length: 00:00:11
Video: NTSC 16:9 (720x480) VBR, Auto Pan&Scan
Audio:
English (Dolby AC3, 6 ch)
Menu Video:
NTSC 16:9 (720x480) VBR
Auto Pan&Scan
Menu English Language Unit :
Root Menu
Subpicture Menu
Audio Menu

MediaInfo

Общее
Полное имя : M:\Frogs_1972\VIDEO_TS\VTS_01_1.VOB
Формат : MPEG-PS
Размер файла : 1024 Мбайт
Продолжительность : 21 м.
Режим общего битрейта : Переменный
Общий поток : 6774 Кбит/сек
Видео
Идентификатор : 224 (0xE0)
Формат : MPEG Video
Версия формата : Version 2
Профиль формата : Main@Main
Параметр BVOP формата : Да
Параметр матрицы формата : Выборочная
Продолжительность : 21 м.
Вид битрейта : Переменный
Битрейт : 6255 Кбит/сек
Ширина : 720 пикселей
Высота : 480 пикселей
Соотношение сторон : 16:9
Частота кадров : 29,970 кадров/сек
Стандарт вещания : NTSC
Цветовое пространство : YUV
Субдискретизация насыщенности : 4:2:0
Битовая глубина : 8 бит
Метод сжатия : С потерями
Бит/(Пиксели*Кадры) : 0.604
Размер потока : 946 Мбайт (92%)
Основные цвета : BT.601 NTSC
Характеристики трансфера : BT.601
Коэффициенты матрицы : BT.601
Аудио #1
Идентификатор : 189 (0xBD)-128 (0x80)
Формат : AC-3
Формат/Информация : Audio Coding 3
Расширение режима : CM (complete main)
Параметр Endianness формата : Big
Режим смешивания : DVD-Video
Продолжительность : 21 м.
Вид битрейта : Постоянный
Битрейт : 192 Кбит/сек
Каналы : 2 канала
Расположение каналов : Front: L R
Частота : 48,0 КГц
Битовая глубина : 16 бит
Метод сжатия : С потерями
Размер потока : 29,0 Мбайт (3%)
Аудио #2
Идентификатор : 189 (0xBD)-129 (0x81)
Формат : AC-3
Формат/Информация : Audio Coding 3
Расширение режима : CM (complete main)
Параметр Endianness формата : Big
Режим смешивания : DVD-Video
Продолжительность : 21 м.
Вид битрейта : Постоянный
Битрейт : 192 Кбит/сек
Каналы : 2 канала
Расположение каналов : Front: L R
Частота : 48,0 КГц
Битовая глубина : 16 бит
Метод сжатия : С потерями
Размер потока : 29,0 Мбайт (3%)
Текст #1
Идентификатор : 189 (0xBD)-32 (0x20)
Формат : RLE
Формат/Информация : Run-length encoding
Режим смешивания : DVD-Video
Задержка видео : 267 мс.
Текст #2
Идентификатор : 189 (0xBD)-33 (0x21)
Формат : RLE
Формат/Информация : Run-length encoding
Режим смешивания : DVD-Video
Задержка видео : 267 мс.
Меню

Скриншоты меню


_________________
Показать сообщения:    

Текущее время: Сегодня 08:22

Часовой пояс: GMT



Вы не можете начинать темы
Вы не можете отвечать на сообщения
Вы не можете редактировать свои сообщения
Вы не можете удалять свои сообщения
Вы не можете голосовать в опросах
Вы не можете прикреплять файлы к сообщениям
Вы не можете скачивать файлы