Важное объявление!
У Нас Все раздачи мультитрекерные, при нуле пиров в релизах, можете смело вставать на закачку!
 
Автор Сообщение

HUNTER

Стаж:
4 года 4 месяца
Сообщений:
56848

Репутация: 101

[+] [-]
Вне форума [Профиль] [ЛС]

Лягушачий город 2 / Город жаб 2 / Возвращение в город жаб / Frogtown II / Frogtown 2
Страна: США
Студия: York Entertainment
Жанр: постапокалипсис, фантастика, боевик
Год выпуска: 1992
Продолжительность: 01:29:56
Перевод: Авторский (одноголосый закадровый) Володарский
Cубтитры: нет
Оригинальная аудиодорожка: английский
Режиссер: Дональд Дж. Джексон / Donald G. Jackson
В ролях: Деннис Дафф, Роберт З’Дар, Майкл Роберт Найман, Дон Страуд, Чарльз Напье, Линда Сингер
Описание: Повелитель лягушек-мутантов похищает профессора Танзера и заставляет его сделать сыворотку, которая позволит превратить всех людей в лягушек. Вместе с ученым мутанты похищают несколько человек, на которых собираются проводить эксперименты. Естественно, на спасательную операцию отправляется отважный авантюрист Сэм Хеллмонд…
Значительно слабее, чем оригинал, хотя от смеха удержаться все так же трудно. Актер Лу Ферриньо (род. в 1951 году) снимался в картинах «Семь великолепных гладиаторов» (1983), «Геркулес» (1983), «Невероятные приключения Геркулеса» (1985), «Воин пустыни» (1988), «Синбад-легенда семи морей» (1989), «Клетка» (1989), «Голая правда» (1992), «Сын Божий» (1998), «Халк» (2003). В кино Лу пришел из культуризма. В 1973-1974 годах он завоевал титул мистер Вселенная. Он стал самым молодым обладателем этого титула в истории культуризма. Он был самым высоким культуристом 70-х годов. В детстве Лу подхватил инфекцию уха и стал плохо слышать. Также Лу профессионально играл в американский футбол в канадской лиге. Актер должен был сниматься в картине «Гладиатор» (2000), но в последний момент его заменил Свен-Оле Торсен, который больше года пытался получить эту роль. Интересно, что Лу отобрал у Арнольда Шварценегерра роль в телесериале «Невероятный Халк» (1978), так как был на несколько сантиметров его выше. В октябре 1981 года Лу находился в Египте по приглашению президента страны Анвара Садата. Он должен был быть его гостем на публичной встрече, но в последний момент Садат отменил мероприятие. Несколько дней спустя мусульманские фундаменталисты убили Садата на ежегодном военном параде наряду с двенадцатью другими людьми. Позднее выяснилось, что убийство президента планировалось именно на ту встречу, где Ферриньо должен был сидеть рядом с Садатом.
Доп. информация: Русская звуковая дорожка взята с этой раздачи http://rutracker.org/forum/viewtopic.php?t=3365696 автору большое спасибо.
За синхронизацию огромное спасибо Нордер.
При пересборе двд были использованы программы:
PgcDemux - разделение компонентов диска на файлы
Muxman - мультиплексирование и авторинг DVD
VobBlanker - реавторинг DVD

Скрин завершения проекта

Бонусы: Меню отсутствует.
Сэмпл: http://sendfile.su/1108971
Тип релиза: DVD5 (Custom)
Контейнер: DVD-Video
Видео: NTSC 4:3 (720x480) VBR
Аудио: Russian (Dolby AC3, 192 Кбит/сек, 2 ch)
Аудио 2: English (Dolby AC3, 192 Кбит/сек, 1 ch)

DVDInfo

Size: 3.84 Gb ( 4 027 634 KBytes ) - DVD-5
Enabled regions: 1, 2, 3, 4, 5, 6, 7, 8
VTS_01 :
Play Length: 00:00:09
Video: NTSC 4:3 (720x480) VBR
Audio:
English (Dolby AC3, 6 ch)
VTS_02 :
Play Length: 00:00:12
Video: NTSC 4:3 (720x480) VBR
Audio:
English (Dolby AC3, 6 ch)
VTS_03 :
Play Length: 01:29:56
Video: NTSC 4:3 (720x480) VBR
Audio:
Russian (Dolby AC3, 2 ch)
English (Dolby AC3, 1 ch)
VTS_04 :
Play Length: 00:00:06
Video: NTSC 4:3 (720x480) VBR
Audio:
English (Dolby AC3, 2 ch)
Menu Video:
NTSC 4:3 (720x480) VBR
Menu English Language Unit :
Root Menu

MediaInfo

Общее
Полное имя : F:\Frogtown2_1992\VIDEO_TS\VTS_03_1.VOB
Формат : MPEG-PS
Размер файла : 1024 Мбайт
Продолжительность : 22 м.
Режим общего битрейта : Переменный
Общий поток : 6244 Кбит/сек
Видео
Идентификатор : 224 (0xE0)
Формат : MPEG Video
Версия формата : Version 2
Профиль формата : Main@Main
Параметр BVOP формата : Да
Параметр матрицы формата : Выборочная
Параметр GOP формата : M=3, N=15
Продолжительность : 22 м.
Вид битрейта : Переменный
Битрейт : 5735 Кбит/сек
Ширина : 720 пикселей
Высота : 480 пикселей
Соотношение сторон : 4:3
Частота кадров : 29,970 кадров/сек
Стандарт вещания : NTSC
Цветовое пространство : YUV
Субдискретизация насыщенности : 4:2:0
Битовая глубина : 8 бит
Тип развёртки : Чересстрочная
Порядок развёртки : Верхнее поле первое
Метод сжатия : С потерями
Бит/(Пиксели*Кадры) : 0.554
Размер потока : 941 Мбайт (92%)
Аудио #1
Идентификатор : 189 (0xBD)-128 (0x80)
Формат : AC-3
Формат/Информация : Audio Coding 3
Расширение режима : CM (complete main)
Параметр Endianness формата : Big
Режим смешивания : DVD-Video
Продолжительность : 22 м.
Вид битрейта : Постоянный
Битрейт : 192 Кбит/сек
Каналы : 2 канала
Расположение каналов : Front: L R
Частота : 48,0 КГц
Битовая глубина : 16 бит
Метод сжатия : С потерями
Задержка видео : -66 мс.
Размер потока : 31,5 Мбайт (3%)
Аудио #2
Идентификатор : 189 (0xBD)-129 (0x81)
Формат : AC-3
Формат/Информация : Audio Coding 3
Расширение режима : CM (complete main)
Параметр Endianness формата : Big
Режим смешивания : DVD-Video
Продолжительность : 22 м.
Вид битрейта : Постоянный
Битрейт : 192 Кбит/сек
Каналы : 1 канал
Расположение каналов : Front: C
Частота : 48,0 КГц
Битовая глубина : 16 бит
Метод сжатия : С потерями
Задержка видео : -66 мс.
Размер потока : 31,5 Мбайт (3%)
Меню

Постер и обложка


_________________
Показать сообщения:    

Текущее время: Сегодня 01:48

Часовой пояс: GMT



Вы не можете начинать темы
Вы не можете отвечать на сообщения
Вы не можете редактировать свои сообщения
Вы не можете удалять свои сообщения
Вы не можете голосовать в опросах
Вы не можете прикреплять файлы к сообщениям
Вы не можете скачивать файлы
Наши партнеры: интернет магазин Ивановского трикотажа textilla.ru