Важное объявление!
У Нас Все раздачи мультитрекерные, при нуле пиров в релизах, можете смело вставать на закачку!
 
Автор Сообщение

HUNTER

Стаж:
4 года 4 месяца
Сообщений:
56829

Репутация: 101

[+] [-]
Вне форума [Профиль] [ЛС]

Люпен III: Принцесса бриза - Город скрытый в небесах/ Lupin III: Princess of the Breeze - Hidden City in the Sky / Lupin Sansei: Princess of the Breeze - Kakusareta Kuuchuu Toshi / ルパン三世 Princess of the breeze ~隠された空中都市~-
Год выпуска:2013
Страна: Япония
Жанр:приключения, комедия
Продолжительность:ТВ-спэшл, 90 мин.-
Перевод: трехголосая
Озвучка: loster01, Emeri, Shoker-Субтитры: есть
Перевод на русский: [Semyon44, Mirron]-Режиссер: Канасаки Такаоми / Kanasaki Takaomi / 金崎貴臣
Автор оригинала: Манки Панч / Monkey Punch / モンキー・パンチ
Студия
-Описание:
Шахалта - плавающий в небе, крошечный европейский городок-государство, не имеющий контакта с внешним миром уже много лет. Правительство переходит от монархии к республике, и в честь этого устраивает национальную выставку сокровищ. Люпин решает проникнуть туда, чтобы украсть секретные царские сокровища.
-Качество: BDRip [by LE-Production]
Формат: MKV
Видео кодек: H264[8bit]
Аудио кодек: AC-3
Видео: 1280x720 (16:9), 3 500 kbps, 23.976 fps
Аудио#1: RUS(int) AC-3, stereo, 48 KHz, 640 kbps
Аудио#2: JAP AC-3, stereo, 48 KHz, 640 kbps
Релиз от:
-

Подробные тех. данные

Format : MatroskaFormat version : Version 4 / Version 2File size : 3.03 GiBDuration : 1h 30mnOverall bit rate : 4 781 KbpsEncoded date : UTC 2014-02-27 08:12:53Writing application : mkvmerge v6.7.0 ('Back to the Ground') 64bit built on Jan 8 2014 15:10:52Writing library : libebml v1.3.0 + libmatroska v1.4.1
VideoID : 1Format : AVCFormat/Info : Advanced Video CodecFormat profile : High@L4.0Format settings, CABAC : YesFormat settings, ReFrames : 6 framesCodec ID : V_MPEG4/ISO/AVCDuration : 1h 30mnBit rate : 3 500 KbpsWidth : 1 280 pixelsHeight : 720 pixelsDisplay aspect ratio : 16:9Frame rate mode : ConstantFrame rate : 23.976 fpsColor space : YUVChroma subsampling : 4:2:0Bit depth : 8 bitsScan type : ProgressiveBits/(Pixel*Frame) : 0.158Stream size : 2.16 GiB (71%)Writing library : x264 core 119 r2106 07efeb4Encoding settings : cabac=1 / ref=6 / deblock=1:1:1 / analyse=0x3:0x113 / me=hex / subme=7 / psy=1 / psy_rd=0.40:0.00 / mixed_ref=1 / me_range=16 / chroma_me=1 / trellis=1 / 8x8dct=1 / cqm=0 / deadzone=21,11 / fast_pskip=1 / chroma_qp_offset=-2 / threads=12 / sliced_threads=0 / nr=0 / decimate=1 / interlaced=0 / bluray_compat=0 / constrained_intra=0 / bframes=5 / b_pyramid=2 / b_adapt=1 / b_bias=0 / direct=3 / weightb=1 / open_gop=0 / weightp=2 / keyint=250 / keyint_min=23 / scenecut=40 / intra_refresh=0 / rc_lookahead=40 / rc=2pass / mbtree=1 / bitrate=3500 / ratetol=1.0 / qcomp=0.60 / qpmin=0 / qpmax=69 / qpstep=4 / cplxblur=20.0 / qblur=0.5 / ip_ratio=1.40 / aq=1:0.60Default : YesForced : No
Audio #1ID : 2Format : AC-3Format/Info : Audio Coding 3Mode extension : CM (complete main)Format settings, Endianness : BigCodec ID : A_AC3Duration : 1h 30mnBit rate mode : ConstantBit rate : 640 KbpsChannel count : 2 channelsChannel positions : Front: L RSampling rate : 48.0 KHzBit depth : 16 bitsCompression mode : LossyStream size : 415 MiB (13%)Title : LE-Production (loster01, Emeri, Shoker)Language : RussianDefault : YesForced : No
Audio #2ID : 3Format : AC-3Format/Info : Audio Coding 3Mode extension : CM (complete main)Format settings, Endianness : BigCodec ID : A_AC3Duration : 1h 30mnBit rate mode : ConstantBit rate : 640 KbpsChannel count : 2 channelsChannel positions : Front: L RSampling rate : 48.0 KHzBit depth : 16 bitsCompression mode : LossyStream size : 415 MiB (13%)Language : JapaneseDefault : NoForced : No
TextID : 4Format : ASSCodec ID : S_TEXT/ASSCodec ID/Info : Advanced Sub Station AlphaCompression mode : LosslessTitle : Semyon44, MirronLanguage : RussianDefault : NoForced : No

Скриншоты




_________________
Показать сообщения:    

Текущее время: Сегодня 14:50

Часовой пояс: GMT



Вы не можете начинать темы
Вы не можете отвечать на сообщения
Вы не можете редактировать свои сообщения
Вы не можете удалять свои сообщения
Вы не можете голосовать в опросах
Вы не можете прикреплять файлы к сообщениям
Вы не можете скачивать файлы