Важное объявление!
У Нас Все раздачи мультитрекерные, при нуле пиров в релизах, можете смело вставать на закачку!
 
Автор Сообщение

HUNTER

Стаж:
4 года 4 месяца
Сообщений:
56839

Репутация: 101

[+] [-]
Вне форума [Профиль] [ЛС]

-Люди под лестницей / The People Under the Stairs
«In every neighborhood there is one house that adults whisper about and children cross the street to avoid»-
-Страна: США
Жанр: Ужасы, Триллер, Комедия, Детектив
Год выпуска: 1991
Продолжительность: 01:41:56-Перевод 1: Профессиональный (дублированный)
Перевод 2: Профессиональный (многоголосый закадровый) R5
Перевод 3: Профессиональный (многоголосый закадровый) СТС
Перевод 4: Профессиональный (многоголосый закадровый) Премьер
Перевод 5: Профессиональный (двухголосый закадровый) НТВ
Перевод 6: Авторский (одноголосый закадровый) Гаврилов-Cубтитры: Русские, Английские
Оригинальная аудиодорожка: Английская-Режиссер: Уэс Крэйвен / Wes Craven-В ролях: Брэндон Квинтин Адамс, Эверет МакГилл, Уэнди Роби, А.Дж. Ленджер, Винг Реймз, Шон Уэйлен, Билл Коббс, Келли Джо Минтер, Джереми Робертс, Конни Мари Бразелтон-Описание: В каждом городе есть дом, о котором рассказывают ужасные вещи. Взрослые говорят об этом месте шепотом, а все соседские ребятишки обходят его стороной. От таких мрачных домов веет сыростью и смертью. И вряд ли найдется смельчак, который, даже на спор отважится приблизиться к страшному месту в сумраке ночи
Но случилось так, что однажды обыкновенный тринадцатилетний мальчик вступил в жуткое жилище. Тот кошмар, который пришлось испытать маленькому герою, невозможно описать словами...- - -Тип релиза: BDRip 720p
Контейнер: MKV-Видео: MPEG-4 AVC, 1280x704 (16:9), 23.976 fps, ~7660 kbps avg, 0.354 bit/pixel
Аудио 1: 48 kHz, DTS, 2/0 (L,R) ch, ~768 kbps avg (Дубляж)
Аудио 2: 48 kHz, AC3 Dolby Digital, 3/2 (L,C,R,l,r) + LFE ch, ~448 kbps avg (R5)
Аудио 3: 48 kHz, AC3 Dolby Digital, 2/0 (L,R) ch, ~192 kbps avg (СТС)
Аудио 4: 48 kHz, AC3 Dolby Digital, 2/0 (L,R) ch, ~192 kbps avg (Премьер)
Аудио 5: 48 kHz, AC3 Dolby Digital, 2/0 (L,R) ch, ~192 kbps avg (НТВ)
Аудио 6: 48 kHz, DTS, 2/0 (L,R) ch, ~510 kbps avg (Гаврилов)
Аудио 7: 48 kHz, DTS, 2/0 (L,R) ch, ~1509 kbps avg (Original)-

MediaInfo

Complete name : D:\РАЗДАЧИ\The People Under the Stairs (1991) BDRip 720p.mkv
Format : Matroska
Format version : Version 2
File size : 8.33 GiB
Duration : 1h 41mn
Overall bit rate : 11.7 Mbps
Movie name : The People Under the Stairs (1991) BDRip 720p
Encoded date : UTC 2016-02-26 11:43:49
Writing application : mkvmerge v3.0.0 ('Hang up your Hang-Ups') built on Dec 12 2009 15:20:35
Writing library : libebml v0.7.9 + libmatroska v0.8.1
Cover : Yes
Video
ID : 1
Format : AVC
Format/Info : Advanced Video Codec
Format profile : High@L4.1
Format settings, CABAC : Yes
Format settings, ReFrames : 9 frames
Codec ID : V_MPEG4/ISO/AVC
Duration : 1h 41mn
Bit rate : 7 650 Kbps
Width : 1 280 pixels
Height : 704 pixels
Display aspect ratio : 16:9
Frame rate mode : Constant
Frame rate : 23.976 fps
Color space : YUV
Chroma subsampling : 4:2:0
Bit depth : 8 bits
Scan type : Progressive
Bits/(Pixel*Frame) : 0.354
Stream size : 5.45 GiB (65%)
Writing library : x264 core 142 r2479kMod dd79a61
Encoding settings : cabac=1 / ref=9 / deblock=1:-3:-3 / analyse=0x3:0x133 / me=tesa / subme=10 / psy=1 / fade_compensate=0.00 / psy_rd=1.00:0.05 / mixed_ref=1 / me_range=24 / chroma_me=1 / trellis=2 / 8x8dct=1 / cqm=0 / deadzone=21,11 / fast_pskip=0 / chroma_qp_offset=-3 / threads=6 / lookahead_threads=1 / sliced_threads=0 / nr=0 / decimate=1 / interlaced=0 / bluray_compat=0 / constrained_intra=0 / fgo=0 / bframes=12 / b_pyramid=2 / b_adapt=2 / b_bias=0 / direct=3 / weightb=1 / open_gop=0 / weightp=2 / keyint=250 / keyint_min=23 / scenecut=40 / intra_refresh=0 / rc_lookahead=60 / rc=crf / mbtree=0 / crf=18.5000 / qcomp=0.65 / qpmin=0 / qpmax=69 / qpstep=4 / vbv_maxrate=62500 / vbv_bufsize=78125 / crf_max=0.0 / nal_hrd=none / filler=0 / ip_ratio=1.30 / pb_ratio=1.20 / aq=3:0.60
Language : English
Default : No
Forced : No
Matrix coefficients : BT.709
Audio #1
ID : 2
Format : DTS
Format/Info : Digital Theater Systems
Mode : 16
Format settings, Endianness : Big
Codec ID : A_DTS
Duration : 1h 41mn
Bit rate mode : Constant
Bit rate : 768 Kbps
Channel(s) : 2 channels
Channel positions : Front: L R
Sampling rate : 48.0 KHz
Bit depth : 24 bits
Compression mode : Lossy
Stream size : 560 MiB (7%)
Title : Дубляж
Language : Russian
Default : Yes
Forced : No
Audio #2
ID : 3
Format : AC-3
Format/Info : Audio Coding 3
Mode extension : CM (complete main)
Format settings, Endianness : Big
Codec ID : A_AC3
Duration : 1h 41mn
Bit rate mode : Constant
Bit rate : 448 Kbps
Channel(s) : 6 channels
Channel positions : Front: L C R, Side: L R, LFE
Sampling rate : 48.0 KHz
Bit depth : 16 bits
Compression mode : Lossy
Stream size : 327 MiB (4%)
Title : R5
Language : Russian
Default : No
Forced : No
Audio #3
ID : 4
Format : AC-3
Format/Info : Audio Coding 3
Mode extension : CM (complete main)
Format settings, Endianness : Big
Codec ID : A_AC3
Duration : 1h 41mn
Bit rate mode : Constant
Bit rate : 192 Kbps
Channel(s) : 2 channels
Channel positions : Front: L R
Sampling rate : 48.0 KHz
Bit depth : 16 bits
Compression mode : Lossy
Stream size : 140 MiB (2%)
Title : СТС
Language : Russian
Default : No
Forced : No
Audio #4
ID : 5
Format : AC-3
Format/Info : Audio Coding 3
Mode extension : CM (complete main)
Format settings, Endianness : Big
Codec ID : A_AC3
Duration : 1h 41mn
Bit rate mode : Constant
Bit rate : 192 Kbps
Channel(s) : 2 channels
Channel positions : Front: L R
Sampling rate : 48.0 KHz
Bit depth : 16 bits
Compression mode : Lossy
Stream size : 140 MiB (2%)
Title : Премьер
Language : Russian
Default : No
Forced : No
Audio #5
ID : 6
Format : AC-3
Format/Info : Audio Coding 3
Mode extension : CM (complete main)
Format settings, Endianness : Big
Codec ID : A_AC3
Duration : 1h 41mn
Bit rate mode : Constant
Bit rate : 192 Kbps
Channel(s) : 2 channels
Channel positions : Front: L R
Sampling rate : 48.0 KHz
Bit depth : 16 bits
Compression mode : Lossy
Stream size : 140 MiB (2%)
Title : НТВ
Language : Russian
Default : No
Forced : No
Audio #6
ID : 7
Format : DTS
Format/Info : Digital Theater Systems
Mode : 16
Format settings, Endianness : Big
Codec ID : A_DTS
Duration : 1h 41mn
Bit rate mode : Constant
Bit rate : 510 Kbps
Channel(s) : 2 channels
Channel positions : Front: L R
Sampling rate : 48.0 KHz
Bit depth : 24 bits
Compression mode : Lossy
Stream size : 372 MiB (4%)
Title : Гаврилов
Language : Russian
Default : No
Forced : No
Audio #7
ID : 8
Format : DTS
Format/Info : Digital Theater Systems
Mode : 16
Format settings, Endianness : Big
Codec ID : A_DTS
Duration : 1h 41mn
Bit rate mode : Constant
Bit rate : 1 509 Kbps
Channel(s) : 2 channels
Channel positions : Front: L R
Sampling rate : 48.0 KHz
Bit depth : 24 bits
Compression mode : Lossy
Stream size : 1.07 GiB (13%)
Title : Original
Language : English
Default : No
Forced : No
Text #1
ID : 9
Format : UTF-8
Codec ID : S_TEXT/UTF8
Codec ID/Info : UTF-8 Plain Text
Title : Russian
Language : Russian
Default : No
Forced : No
Text #2
ID : 10
Format : UTF-8
Codec ID : S_TEXT/UTF8
Codec ID/Info : UTF-8 Plain Text
Title : English
Language : English
Default : No
Forced : No
Menu
00:00:00.000 : en:00:00:00.000
00:05:16.983 : en:00:05:16.983
00:11:31.232 : en:00:11:31.232
00:16:12.346 : en:00:16:12.346
00:22:11.121 : en:00:22:11.121
00:26:25.250 : en:00:26:25.250
00:34:19.015 : en:00:34:19.015
00:41:25.858 : en:00:41:25.858
00:47:24.258 : en:00:47:24.258
00:52:10.336 : en:00:52:10.336
00:57:08.383 : en:00:57:08.383
01:00:07.562 : en:01:00:07.562
01:06:10.550 : en:01:06:10.550
01:11:16.772 : en:01:11:16.772
01:16:05.811 : en:01:16:05.811
01:23:38.222 : en:01:23:38.222
01:29:38.999 : en:01:29:38.999
01:38:22.688 : en:01:38:22.688

Скриншоты


_________________
Показать сообщения:    

Текущее время: Сегодня 01:22

Часовой пояс: GMT



Вы не можете начинать темы
Вы не можете отвечать на сообщения
Вы не можете редактировать свои сообщения
Вы не можете удалять свои сообщения
Вы не можете голосовать в опросах
Вы не можете прикреплять файлы к сообщениям
Вы не можете скачивать файлы