Важное объявление!
У Нас Все раздачи мультитрекерные, при нуле пиров в релизах, можете смело вставать на закачку!
 
Автор Сообщение

HUNTER

Стаж:
4 года 4 месяца
Сообщений:
56783

Репутация: 101

[+] [-]
Вне форума [Профиль] [ЛС]

Люди икс. Трилогия / X-Men, X2, X-Men: The Last Stand (Брайан Сингер/Bryan Singer, Бретт Рэтнер/Brett Ratner) [2000г., 2003г., 2006г., Фантастика, DVDrip]
Год выпуска: 2000, 2003, 2006
Страна: США
Жанр: фантастика
Продолжительность: 328 мин.
Перевод: Профессиональный (полное дублирование)
Русские субтитры: есть
Режиссер: Брайан Сингер, Бретт Рэтнер.
В ролях: Хью Джекмен, Холли Берри, Патрик Стюарт, Иэн МакКеллен, Анна Пакуин, Брайан Кокс.
Описание: Люди икс / X-Men (2000 г., 100 мин)
Под руководством профессора Чарльза Ксавьера, телепата с мировым именем, одаренные ученики научились контролировать и управлять своими удивительными способностями в интересахчеловечества. Но не все мутанты разделяют взгляды профессора: могущественный мутант Магнето, мастер магнетизма, которому подвластно управление всеми металлами, собрал команду единомышленников. Он не верит, что люди и мутанты когда - либо смогут мирно сосуществовать, и разработал план по захвату власти над миром. И только ученики профессора Ксавьера смогут защитить этот мир...
Качество: DVDRip
Формат: MP4
Видео кодек: H.264/MPEG-4 AVC (.MP4) Nero Cinema Profile
Видео: 720x304, 1773 кб/с, частота кадров 25,0, 0.324 bit/pixel
Аудио: Русский - MPEG-4 AAC LC 48000Hz 159 kb/s tot , 6 chnls (3/2 .1)
Аудио: Английский - MPEG-4 AAC LC 48000Hz 159 kb/s tot , 6 chnls (3/2 .1)
Cубтитры: Русские, Английские.

mediainfo

General
Complete name : H:\X-MEN.The trilogy\X_MEN_1.mp4
Format : MPEG-4
Format profile : Base Media / Version 2
Codec ID : mp42
File size : 1.35 GiB
Duration : 1h 40mn
Overall bit rate : 1 918 Kbps
Encoded date : UTC 2009-01-21 12:11:55
Tagged date : UTC 2009-01-21 17:21:02
Video
Format : AVC
Format/Info : Advanced Video Codec
Format profile : Main@L3.0
Format settings, CABAC : Yes
Format settings, ReFrames : 2 frames
Codec ID : avc1
Codec ID/Info : Advanced Video Coding
Duration : 1h 40mn
Bit rate mode : Variable
Bit rate : 1 604 Kbps
Maximum bit rate : 7 199 Kbps
Width : 720 pixels
Height : 304 pixels
Display aspect ratio : 2.35
Frame rate mode : Constant
Frame rate : 25.000 fps
Standard : PAL
Resolution : 24 bits
Colorimetry : 4:2:0
Scan type : Progressive
Bits/(Pixel*Frame) : 0.293
Stream size : 1.12 GiB (83%)
Encoded date : UTC 2009-01-21 12:11:55
Tagged date : UTC 2009-01-21 17:21:02
Audio #1
Format : AAC
Format/Info : Advanced Audio Codec
Format version : Version 4
Format profile : LC
Format settings, SBR : Yes
Format settings, PS : No
Codec ID : 40
Duration : 1h 40mn
Bit rate mode : Variable
Bit rate : 159 Kbps
Maximum bit rate : 288 Kbps
Channel(s) : 6 channels
Channel positions : Front: L C R, Rear: L R, LFE
Sampling rate : 48.0 KHz
Resolution : 16 bits
Stream size : 113 MiB (8%)
Encoded date : UTC 2009-01-21 12:11:55
Tagged date : UTC 2009-01-21 17:21:02
Audio #2
Format : AAC
Format/Info : Advanced Audio Codec
Format version : Version 4
Format profile : LC
Format settings, SBR : Yes
Format settings, PS : No
Codec ID : 40
Duration : 1h 40mn
Bit rate mode : Variable
Bit rate : 159 Kbps
Maximum bit rate : 279 Kbps
Channel(s) : 6 channels
Channel positions : Front: L C R, Rear: L R, LFE
Sampling rate : 48.0 KHz
Resolution : 16 bits
Stream size : 113 MiB (8%)
Encoded date : UTC 2009-01-21 12:11:55
Tagged date : UTC 2009-01-21 17:21:02
Text #1
Format : VobSub
Codec ID : subp
Codec ID/Info : The same subtitle format used on DVDs
Duration : 1h 40mn
Bit rate mode : Variable
Bit rate : 1 871 bps
Stream size : 1.35 MiB (0%)
Title : ?
Language : English
Encoded date : UTC 2009-01-21 12:12:42
Tagged date : UTC 2009-01-21 17:21:02
Text #2
Format : VobSub
Codec ID : subp
Codec ID/Info : The same subtitle format used on DVDs
Duration : 1h 40mn
Bit rate mode : Variable
Bit rate : 1 919 bps
Stream size : 1.37 MiB (0%)
Title :
Language : Russian
Encoded date : UTC 2009-01-21 12:12:42
Tagged date : UTC 2009-01-21 17:21:02
Chapters
1 : 00:00:00.000 - Раздел 1
2 : 00:04:04.040 - Раздел 2
3 : 00:08:58.760 - Раздел 3
4 : 00:17:15.520 - Раздел 4
5 : 00:22:57.880 - Раздел 5
6 : 00:26:10.560 - Раздел 6
7 : 00:28:39.800 - Раздел 7
8 : 00:35:05.400 - Раздел 8
9 : 00:36:48.920 - Раздел 9
10 : 00:42:23.320 - Раздел 10
11 : 00:47:47.680 - Раздел 11
12 : 00:49:55.960 - Раздел 12
13 : 00:56:39.920 - Раздел 13
14 : 01:03:18.240 - Раздел 14
15 : 01:06:22.040 - Раздел 15
16 : 01:09:23.880 - Раздел 16
17 : 01:14:50.120 - Раздел 17
18 : 01:23:22.840 - Раздел 18
19 : 01:29:21.960 - Раздел 19
20 : 01:40:00.880 - Раздел 20

Сэмпл

Сэмпл

Скриншоты




Описание: Люди икс 2 / X-Men 2 (2003 г., 128 мин)
Мутанты продолжают борьбу против общества, которое страшит их, и которому они не доверяют. Их положение становится еще более отчаянным, когда они подвергаются мощной атаке неизвестного противника, обладающего экстраординарными способностями. Внезапное нападение снова становится причиной политического и общественного резонанса по поводу введения повсеместной регистрации мутантов и причиной образования движения против мутантов, возглавляемого Уильямом Страйкером, бывшим военным, который, по слухам, проводил опыты над мутантами.
Работа Страйкера была каким-то образом связана с таинственным прошлым Логана, которое он не помнит. Как только Росомаха начинает пытаться разгадать свое прошлое, Страйкер активирует свою программу, направленную против мутантов, т.е. организует штурм на дом профессора Ксавье. Сбежавший из пластиковой тюрьмы Магнето предлагает Людям Икс объединиться и сражаться вместе против их общего устрашающего врага Страйкера.
На этот раз Люди ИКС сталкиваются с самой серьезной задачей, которая когда-либо стояла перед ними: сейчас в их руках судьбы не только всех мутантов, но и всего человечества.
Качество: DVDRip
Формат: MP4
Видео кодек: H.264/MPEG-4 AVC (.MP4) Nero Cinema Profile
Видео: 720x304, 1347 кб/с, частота кадров 25,0, 0.246 bit/pixel
Аудио: Русский - MPEG-4 AAC LC 48000Hz 161 kb/s tot , 6 chnls (3/2 .1)
Аудио: Английский - MPEG-4 AAC LC 48000Hz 161 kb/s tot , 6 chnls (3/2 .1)
Cубтитры: Русские, Английские.

mediainfo

General
Complete name : H:\X-MEN.The trilogy\X_MEN_2.mp4
Format : MPEG-4
Format profile : Base Media / Version 2
Codec ID : mp42
File size : 1.35 GiB
Duration : 2h 8mn
Overall bit rate : 1 508 Kbps
Encoded date : UTC 2009-01-21 17:40:10
Tagged date : UTC 2009-01-21 23:15:28
Video
Format : AVC
Format/Info : Advanced Video Codec
Format profile : Main@L3.0
Format settings, CABAC : Yes
Format settings, ReFrames : 2 frames
Codec ID : avc1
Codec ID/Info : Advanced Video Coding
Duration : 2h 8mn
Bit rate mode : Variable
Bit rate : 1 178 Kbps
Maximum bit rate : 5 868 Kbps
Width : 720 pixels
Height : 304 pixels
Display aspect ratio : 2.35
Frame rate mode : Constant
Frame rate : 25.000 fps
Standard : PAL
Resolution : 24 bits
Colorimetry : 4:2:0
Scan type : Progressive
Bits/(Pixel*Frame) : 0.215
Stream size : 1.06 GiB (78%)
Encoded date : UTC 2009-01-21 17:40:10
Tagged date : UTC 2009-01-21 23:15:28
Audio #1
Format : AAC
Format/Info : Advanced Audio Codec
Format version : Version 4
Format profile : LC
Format settings, SBR : Yes
Format settings, PS : No
Codec ID : 40
Duration : 2h 8mn
Bit rate mode : Variable
Bit rate : 160 Kbps
Maximum bit rate : 280 Kbps
Channel(s) : 6 channels
Channel positions : Front: L C R, Rear: L R, LFE
Sampling rate : 48.0 KHz
Resolution : 16 bits
Stream size : 147 MiB (11%)
Encoded date : UTC 2009-01-21 17:40:10
Tagged date : UTC 2009-01-21 23:15:28
Audio #2
Format : AAC
Format/Info : Advanced Audio Codec
Format version : Version 4
Format profile : LC
Format settings, SBR : Yes
Format settings, PS : No
Codec ID : 40
Duration : 2h 8mn
Bit rate mode : Variable
Bit rate : 161 Kbps
Maximum bit rate : 296 Kbps
Channel(s) : 6 channels
Channel positions : Front: L C R, Rear: L R, LFE
Sampling rate : 48.0 KHz
Resolution : 16 bits
Stream size : 147 MiB (11%)
Encoded date : UTC 2009-01-21 17:40:10
Tagged date : UTC 2009-01-21 23:15:28
Text #1
Format : VobSub
Codec ID : subp
Codec ID/Info : The same subtitle format used on DVDs
Duration : 2h 8mn
Bit rate mode : Variable
Bit rate : 1 702 bps
Stream size : 1.56 MiB (0%)
Title :
Language : Russian
Encoded date : UTC 2009-01-21 17:41:31
Tagged date : UTC 2009-01-21 23:15:28
Text #2
Format : VobSub
Codec ID : subp
Codec ID/Info : The same subtitle format used on DVDs
Duration : 2h 8mn
Bit rate mode : Variable
Bit rate : 1 775 bps
Stream size : 1.63 MiB (0%)
Title : ?
Language : English
Encoded date : UTC 2009-01-21 17:41:32
Tagged date : UTC 2009-01-21 23:15:28
Chapters
1 : 00:00:00.000 - Раздел 1
2 : 00:01:45.200 - Раздел 2
3 : 00:05:07.960 - Раздел 3
4 : 00:06:53.560 - Раздел 4
5 : 00:11:55.720 - Раздел 5
6 : 00:14:55.160 - Раздел 6
7 : 00:17:12.400 - Раздел 7
8 : 00:18:37.160 - Раздел 8
9 : 00:21:50.800 - Раздел 9
10 : 00:25:04.600 - Раздел 10
11 : 00:28:03.240 - Раздел 11
12 : 00:29:52.880 - Раздел 12
13 : 00:32:18.080 - Раздел 13
14 : 00:33:42.320 - Раздел 14
15 : 00:38:11.480 - Раздел 15
16 : 00:43:42.880 - Раздел 16
17 : 00:45:21.280 - Раздел 17
18 : 00:48:19.440 - Раздел 18
19 : 00:51:06.200 - Раздел 19
20 : 00:53:22.800 - Раздел 20
21 : 00:54:53.440 - Раздел 21
22 : 00:56:55.120 - Раздел 22
23 : 01:02:15.520 - Раздел 23
24 : 01:06:32.360 - Раздел 24
25 : 01:11:44.080 - Раздел 25
26 : 01:15:05.240 - Раздел 26
27 : 01:21:23.160 - Раздел 27
28 : 01:23:41.160 - Раздел 28
29 : 01:26:49.080 - Раздел 29
30 : 01:28:45.640 - Раздел 30
31 : 01:32:45.560 - Раздел 31
32 : 01:37:06.400 - Раздел 32
33 : 01:39:15.960 - Раздел 33
34 : 01:42:15.200 - Раздел 34
35 : 01:44:10.840 - Раздел 35
36 : 01:49:01.720 - Раздел 36
37 : 01:53:27.320 - Раздел 37
38 : 01:57:13.440 - Раздел 38
39 : 01:59:31.360 - Раздел 39
40 : 02:00:02.720 - Раздел 40

Сэмпл

Сэмпл

Скриншоты




Описание: Люди икс 3. Последняя битва / X-Men: The Last Stand (2006 г., 100 мин.)
Людям Икс, во главе с профессором Чарльзом Ксавье, приходится вступить в битву с самой эволюцией в лице их воскресшего товарища по команде... Джин Грэй, возрожденная в облике Темного Феникса, представляет опасность не только для самой себя, но и для мутантов и для всей человеческой расы. А когда наконец найдено возможное лекарство - то, что может предотвратить генетические мутации - наступает время решающей битвы между Людьми Икс, Братством Магнето и человечеством.
Качество: DVDRip
Формат: MP4
Видео кодек: H.264/MPEG-4 AVC (.MP4) Nero Cinema Profile
Видео: 720x304, 1776 кб/с, частота кадров 25,0, 0.325 bit/pixel
Аудио: Русский - MPEG-4 AAC LC 48000Hz 160 kb/s tot , 6 chnls (3/2 .1)
Аудио: Английский - MPEG-4 AAC LC 48000Hz 160 kb/s tot , 6 chnls (3/2 .1)
Cубтитры: Русские, Английские.

mediainfo

General
Complete name : H:\X-MEN.The trilogy\X_MEN_3.mp4
Format : MPEG-4
Format profile : Base Media / Version 2
Codec ID : mp42
File size : 1.35 GiB
Duration : 1h 39mn
Overall bit rate : 1 935 Kbps
Encoded date : UTC 2009-01-22 07:35:49
Tagged date : UTC 2009-01-22 12:14:39
Video
Format : AVC
Format/Info : Advanced Video Codec
Format profile : Main@L3.0
Format settings, CABAC : Yes
Format settings, ReFrames : 2 frames
Codec ID : avc1
Codec ID/Info : Advanced Video Coding
Duration : 1h 39mn
Bit rate mode : Variable
Bit rate : 1 604 Kbps
Maximum bit rate : 8 126 Kbps
Width : 720 pixels
Height : 304 pixels
Display aspect ratio : 2.35
Frame rate mode : Constant
Frame rate : 25.000 fps
Standard : PAL
Resolution : 24 bits
Colorimetry : 4:2:0
Scan type : Progressive
Bits/(Pixel*Frame) : 0.293
Stream size : 1.12 GiB (83%)
Encoded date : UTC 2009-01-22 07:35:49
Tagged date : UTC 2009-01-22 12:14:39
Audio #1
Format : AAC
Format/Info : Advanced Audio Codec
Format version : Version 4
Format profile : LC
Format settings, SBR : Yes
Format settings, PS : No
Codec ID : 40
Duration : 1h 39mn
Bit rate mode : Variable
Bit rate : 160 Kbps
Maximum bit rate : 282 Kbps
Channel(s) : 6 channels
Channel positions : Front: L C R, Rear: L R, LFE
Sampling rate : 48.0 KHz
Resolution : 16 bits
Stream size : 114 MiB (8%)
Encoded date : UTC 2009-01-22 07:35:49
Tagged date : UTC 2009-01-22 12:14:39
Audio #2
Format : AAC
Format/Info : Advanced Audio Codec
Format version : Version 4
Format profile : LC
Format settings, SBR : Yes
Format settings, PS : No
Codec ID : 40
Duration : 1h 39mn
Bit rate mode : Variable
Bit rate : 160 Kbps
Maximum bit rate : 278 Kbps
Channel(s) : 6 channels
Channel positions : Front: L C R, Rear: L R, LFE
Sampling rate : 48.0 KHz
Resolution : 16 bits
Stream size : 114 MiB (8%)
Encoded date : UTC 2009-01-22 07:35:49
Tagged date : UTC 2009-01-22 12:14:39
Text #1
Format : VobSub
Codec ID : subp
Codec ID/Info : The same subtitle format used on DVDs
Duration : 1h 39mn
Bit rate mode : Variable
Bit rate : 2 805 bps
Stream size : 2.00 MiB (0%)
Title :
Language : Russian
Encoded date : UTC 2009-01-22 07:37:01
Tagged date : UTC 2009-01-22 12:14:39
Text #2
Format : VobSub
Codec ID : subp
Codec ID/Info : The same subtitle format used on DVDs
Duration : 1h 39mn
Bit rate mode : Variable
Bit rate : 3 049 bps
Stream size : 2.18 MiB (0%)
Title : ?
Language : English
Encoded date : UTC 2009-01-22 07:38:35
Tagged date : UTC 2009-01-22 12:14:39
Chapters
1 : 00:00:00.000 - Раздел 1
2 : 00:05:02.640 - Раздел 2
3 : 00:08:56.800 - Раздел 3
4 : 00:11:47.600 - Раздел 4
5 : 00:17:07.600 - Раздел 5
6 : 00:22:10.720 - Раздел 6
7 : 00:29:40.280 - Раздел 7
8 : 00:32:32.520 - Раздел 8
9 : 00:36:27.360 - Раздел 9
10 : 00:41:59.000 - Раздел 10
11 : 00:48:30.800 - Раздел 11
12 : 00:53:18.880 - Раздел 12
13 : 00:55:38.680 - Раздел 13
14 : 00:58:41.880 - Раздел 14
15 : 01:01:18.080 - Раздел 15
16 : 01:05:27.480 - Раздел 16
17 : 01:07:45.360 - Раздел 17
18 : 01:10:19.520 - Раздел 18
19 : 01:15:55.400 - Раздел 19
20 : 01:18:46.640 - Раздел 20
21 : 01:21:33.280 - Раздел 21
22 : 01:25:59.800 - Раздел 22
23 : 01:30:32.040 - Раздел 23
24 : 01:32:05.040 - Раздел 24
25 : 01:39:49.400 - Раздел 25

Сэмпл

Сэмпл

Скриншоты




Вам спасибо за "Спасибо"

_________________
Показать сообщения:    

Текущее время: Сегодня 20:23

Часовой пояс: GMT



Вы не можете начинать темы
Вы не можете отвечать на сообщения
Вы не можете редактировать свои сообщения
Вы не можете удалять свои сообщения
Вы не можете голосовать в опросах
Вы не можете прикреплять файлы к сообщениям
Вы не можете скачивать файлы