Важное объявление!
У Нас Все раздачи мультитрекерные, при нуле пиров в релизах, можете смело вставать на закачку!
 
Автор Сообщение

HUNTER

Стаж:
4 года 4 месяца
Сообщений:
56842

Репутация: 101

[+] [-]
Вне форума [Профиль] [ЛС]

Люди Икс: Дни минувшего будущего / X-Men: Days of Future Past / The Rogue Cut
Страна: США, Великобритания
Студия: 20th Century Fox Film Corporation, Bad Hat Harry Productions, Marvel Entertainment, Marv Films, Dune
Жанр: фантастика, боевик, триллер, приключения
Год выпуска: 2014
Продолжительность: 02:28:45
Перевод: Профессиональный (дублированный) iTunes Russia
Cубтитры: русские (forced, full-voronine), английские (forced, full, SDH,Commetary)
Оригинальная аудиодорожка: английский
Режиссер: Брайан Сингер / Bryan Singer
В ролях: Хью Джекман, Джеймс МакЭвой, Майкл Фассбендер, Дженнифер Лоуренс, Холли Берри, Николас Холт, Анна Пэкуин, Эллен Пейдж, Питер Динклэйдж, Шон Эшмор
Описание: В будущем — лагерь для интернированных, где живут мутанты, лишившиеся свободы. В настоящем — непрекращающееся противостояние с Братством злых мутантов во главе с Магнето. В прошлом — возможность предотвратить господство Стражей, а значит, грядущую для мутантов изоляцию. Благодаря своим способностям путешествовать во времени, Китти Прайд, живущая в будущем, предупреждает нынешних мутантов о том, что их ждет. Но этого недостаточно, ведь из грядущего в настоящее явились и силы зла.

Тип релиза: BDRip 720 [VietHD]
Контейнер: MKV
Видео: AVC, 1280x534, 6447kbps, 23.976 fps
Аудио 1: Russian: 48 kHz, AC3, 3/2 (L,C,R,l,r) + LFE ch, ~384.00 kbps avg |iTunes Russia|
Аудио 2: English: 48 kHz, AC3, 3/2 (L,C,R,l,r) + LFE ch, ~640.00 kbps |Original|
Аудио 3: English: 48 kHz, AC3, 2/0 (L,R) ch, ~224.00 kbps avg |Commetary by Bryan Singer and Simon Kinberg|
Аудио 4: English: 48 kHz, AC3, 2/0 (L,R) ch, ~224.00 kbps avg |Commetary by Bryan Singer and John Ottman|
Чаптеры: есть

x264 log

x264 [info]: frame I:2326 Avg QP:13.80 size:140737
x264 [info]: frame P:49232 Avg QP:15.18 size: 54759
x264 [info]: frame B:162445 Avg QP:16.46 size: 26701
x264 [info]: consecutive B-frames: 4.2% 3.6% 7.7% 16.6% 16.6% 38.5% 7.0% 2.4% 1.7% 1.8%
encoded 214003 frames, 3.83 fps, 6597.24 kb/s, duration 15:31:33.98

NOTES

1. US Rogue as main video.It has two scenes with over zoom in & replaced with CHN source.
2. Take some scenes with better PQ from CHN source.
3. The US source has wrong color in scenes with Colors TV (same thing on EUR).
On the other hand, CHN have colors TV changed color of flags from red to purple.
Besides that,three scenes take from CHN change color of medal Vietnamese officers.
Used Tweak(hue=-50, sat=1.1, startHue=0, endHue=100) to tuning back purple to red.
4. Four ranges was fixed dirtylines.
5. Special thanks Friday (Writer Script) Script here.
6. Special thanks great notes form VietHD release.

Доп.информация

Расширенная версия длиннее театральной на 17 минут.
В своем интервью MTV режиссёр заявил, что раньше никогда не делал режиссерских или специальных версий своих фильмов, но всё бывает в первый раз. Rogue Cut будет отличаться от оригинальной версии фильма наличием удалённых сцен общей продолжительностью 17 минут - в основном это сцены с участием героини Роуг в исполнении актрисы Анны Пакуин. Помимо них будут добавлены сцены с Дженнифер Лоуренс и Ником Холтом, а также кое-какие эпизоды с новыми спецэффектами.

MediaInfo

General
Unique ID : 233068647618267258888976656800853109869 (0xAF5763856BA810DC890336E54D71AC6D)
Complete name : D:\X-Men.Days.Of.Future.Past.2014.The.Rogue.Cut.Hybrid.720p.BluRay.DD5.1.x264-Talian-.mkv
Format : Matroska
Format version : Version 2
File size : 8.40 GiB
Duration : 2h 28mn
Overall bit rate : 8 079 Kbps
Movie name : X-Men: Days of Future Past-Talian-
Encoded date : UTC 2015-07-22 06:51:49
Writing application : mkvmerge v5.7.0 ('The Whirlwind') built on Jul 8 2012 20:08:51
Writing library : libebml v1.2.3 + libmatroska v1.3.0
Attachment : Yes / F2@HDbits / F2@HDbits / F2@HDbits / F2@HDbits / F2@HDbits
Video
ID : 1
Format : AVC
Format/Info : Advanced Video Codec
Format profile : High@L4.1
Format settings, CABAC : Yes
Format settings, ReFrames : 12 frames
Codec ID : V_MPEG4/ISO/AVC
Duration : 2h 28mn
Bit rate : 6 447 Kbps
Width : 1 280 pixels
Height : 534 pixels
Display aspect ratio : 2.40:1
Frame rate : 23.976 fps
Color space : YUV
Chroma subsampling : 4:2:0
Bit depth : 8 bits
Scan type : Progressive
Bits/(Pixel*Frame) : 0.393
Stream size : 6.70 GiB (80%)
Title : VietHD
Writing library : x264 core 146 r2538kMod 121396c
Encoding settings : cabac=1 / ref=12 / deblock=1:-3:-3 / analyse=0x3:0x133 / me=umh / subme=10 / psy=1 / fade_compensate=0.00 / psy_rd=1.08:0.00 / mixed_ref=1 / me_range=24 / chroma_me=1 / trellis=2 / 8x8dct=1 / cqm=0 / deadzone=21,11 / fast_pskip=1 / chroma_qp_offset=-2 / threads=6 / lookahead_threads=1 / sliced_threads=0 / nr=0 / decimate=1 / interlaced=0 / bluray_compat=0 / constrained_intra=0 / fgo=0 / bframes=9 / b_pyramid=2 / b_adapt=2 / b_bias=0 / direct=3 / weightb=1 / open_gop=0 / weightp=2 / keyint=250 / keyint_min=23 / scenecut=40 / intra_refresh=0 / rc=crf / mbtree=0 / crf=15.8000 / qcomp=0.65 / qpmin=0 / qpmax=69 / qpstep=4 / ip_ratio=1.30 / pb_ratio=1.20 / aq=3:0.68
Language : English
Default : Yes
Forced : No
Matrix coefficients : BT.709-5, BT.1361, IEC 61966-2-4 709, SMPTE RP177
Audio #1
ID : 2
Format : AC-3
Format/Info : Audio Coding 3
Mode extension : CM (complete main)
Format settings, Endianness : Big
Codec ID : A_AC3
Duration : 2h 28mn
Bit rate mode : Constant
Bit rate : 384 Kbps
Channel(s) : 6 channels
Channel positions : Front: L C R, Side: L R, LFE
Sampling rate : 48.0 KHz
Bit depth : 16 bits
Compression mode : Lossy
Stream size : 409 MiB (5%)
Title : DUB-iTunes
Language : Russian
Default : Yes
Forced : No
Audio #2
ID : 3
Format : AC-3
Format/Info : Audio Coding 3
Mode extension : CM (complete main)
Format settings, Endianness : Big
Codec ID : A_AC3
Duration : 2h 28mn
Bit rate mode : Constant
Bit rate : 640 Kbps
Channel(s) : 6 channels
Channel positions : Front: L C R, Side: L R, LFE
Sampling rate : 48.0 KHz
Bit depth : 16 bits
Compression mode : Lossy
Stream size : 681 MiB (8%)
Title : Original
Language : English
Default : No
Forced : No
Audio #3
ID : 4
Format : AC-3
Format/Info : Audio Coding 3
Mode extension : CM (complete main)
Format settings, Endianness : Big
Codec ID : A_AC3
Duration : 2h 28mn
Bit rate mode : Constant
Bit rate : 224 Kbps
Channel(s) : 2 channels
Channel positions : Front: L R
Sampling rate : 48.0 KHz
Bit depth : 16 bits
Compression mode : Lossy
Stream size : 238 MiB (3%)
Title : (Commetary by Bryan Singer and Simon Kinberg)
Language : English
Default : No
Forced : No
Audio #4
ID : 5
Format : AC-3
Format/Info : Audio Coding 3
Mode extension : CM (complete main)
Format settings, Endianness : Big
Codec ID : A_AC3
Duration : 2h 28mn
Bit rate mode : Constant
Bit rate : 224 Kbps
Channel(s) : 2 channels
Channel positions : Front: L R
Sampling rate : 48.0 KHz
Bit depth : 16 bits
Compression mode : Lossy
Stream size : 238 MiB (3%)
Title : (Commetary by Bryan Singer and John Ottman)
Language : English
Default : No
Forced : No
Text #1
ID : 6
Format : UTF-8
Codec ID : S_TEXT/UTF8
Codec ID/Info : UTF-8 Plain Text
Title : Sub-forced
Language : Russian
Default : Yes
Forced : No
Text #2
ID : 7
Format : UTF-8
Codec ID : S_TEXT/UTF8
Codec ID/Info : UTF-8 Plain Text
Title : Sub-full-voronine
Language : Russian
Default : No
Forced : No
Text #3
ID : 8
Format : UTF-8
Codec ID : S_TEXT/UTF8
Codec ID/Info : UTF-8 Plain Text
Title : Sub-force
Language : English
Default : No
Forced : No
Text #4
ID : 9
Format : UTF-8
Codec ID : S_TEXT/UTF8
Codec ID/Info : UTF-8 Plain Text
Title : Sub-full
Language : English
Default : No
Forced : No
Text #5
ID : 10
Format : UTF-8
Codec ID : S_TEXT/UTF8
Codec ID/Info : UTF-8 Plain Text
Title : Sub-SDH
Language : English
Default : No
Forced : No
Text #6
ID : 11
Format : UTF-8
Codec ID : S_TEXT/UTF8
Codec ID/Info : UTF-8 Plain Text
Title : Sub-comm1
Language : English
Default : No
Forced : No
Text #7
ID : 12
Format : UTF-8
Codec ID : S_TEXT/UTF8
Codec ID/Info : UTF-8 Plain Text
Title : Sub-comm2
Language : English
Default : No
Forced : No
Menu
00:00:00.000 : en:00:00:00.000
00:03:33.338 : en:00:03:33.338
00:08:04.734 : en:00:08:04.734
00:10:34.217 : en:00:10:34.217
00:15:11.410 : en:00:15:11.410
00:18:44.248 : en:00:18:44.248
00:22:43.529 : en:00:22:43.529
00:24:38.769 : en:00:24:38.769
00:29:05.619 : en:00:29:05.619
00:33:03.440 : en:00:33:03.440
00:37:11.896 : en:00:37:11.896
00:38:49.827 : en:00:38:49.827
00:41:06.923 : en:00:41:06.923
00:43:50.336 : en:00:43:50.336
00:50:05.377 : en:00:50:05.377
00:52:07.082 : en:00:52:07.082
00:55:11.391 : en:00:55:11.391
00:57:56.348 : en:00:57:56.348
01:01:04.661 : en:01:01:04.661
01:04:01.421 : en:01:04:01.421
01:06:39.829 : en:01:06:39.829
01:10:22.802 : en:01:10:22.802
01:13:00.459 : en:01:13:00.459
01:16:28.334 : en:01:16:28.334
01:18:48.724 : en:01:18:48.724
01:20:44.590 : en:01:20:44.590
01:22:46.962 : en:01:22:46.962
01:28:07.574 : en:01:28:07.574
01:31:19.057 : en:01:31:19.057
01:33:50.958 : en:01:33:50.958
01:39:22.373 : en:01:39:22.373
01:42:10.291 : en:01:42:10.291
01:44:32.016 : en:01:44:32.016
01:49:13.547 : en:01:49:13.547
01:51:00.862 : en:01:51:00.862
01:54:54.304 : en:01:54:54.304
01:59:15.940 : en:01:59:15.940
02:02:13.743 : en:02:02:13.743
02:04:30.504 : en:02:04:30.504
02:08:16.230 : en:02:08:16.230
02:13:27.583 : en:02:13:27.583
02:16:57.250 : en:02:16:57.250
02:19:19.809 : en:02:19:19.809
02:27:34.011 : en:02:27:34.011

Скриншоты

EUR|Hybrid|VietHD|



_________________
Показать сообщения:    

Текущее время: Сегодня 12:20

Часовой пояс: GMT



Вы не можете начинать темы
Вы не можете отвечать на сообщения
Вы не можете редактировать свои сообщения
Вы не можете удалять свои сообщения
Вы не можете голосовать в опросах
Вы не можете прикреплять файлы к сообщениям
Вы не можете скачивать файлы