Важное объявление!
У Нас Все раздачи мультитрекерные, при нуле пиров в релизах, можете смело вставать на закачку!
 
Автор Сообщение

Vanya_o3

[Профиль] [ЛС]

-Люди-тени / Дверь / Shadow people / The Door--Год выпуска: 2013
Страна: США
Жанр: мистика, триллер-Продолжительность: 01:28:56
Перевод: Одноголосый закадровый [den904]; перевод на русский язык - [А. Кедров]
Субтитры: есть (русские) [.srt]
Оригинальная дорожка: английская--Режиссер: Мэттью Арнольд / Matthew Arnold--В ролях:
Даллас Робертс, Элисон Иствуд, Энн Дудек, Мария Боннер, Мэтти Липтак, Кристофер Берри, Джонатан Барон, Тони Шина, Ричи Монтгомери, Марко Ст. Джон--Описание:Ведущий радиошоу Чарли Кроу узнает в прямом эфире от одного из радиослушателей о неких Людях Теней, которые преследуют своих жертв и стали причиной уже многих смертей. Чарли берется расследовать так называемые «встречи» с таинственными созданиями и вскоре сам начинает ИХ видеть…-Фильм основан на реальном случае загадочных смертей и вирусном ролике "Изучение сна GR16-1971"
Фильм содержит документальные съёмки и интервью с реальными людьми.
--Доп. информация:- - Сэмпл Рип совместим с бытовыми DVD-проигрывателями.--Качество видео: HDRip (Исходник: BDRip 720p/607й )
Формат видео: AVI
Видео: XviD 73; 704 х 288 (2.39:1); 1 567 kbps; 23.976 fps; 0.322 bpp
Аудио №1: AC3; 48.0 KHz; 384 Kbps; CBR; 6 ch (VO)
Аудио №2: AC3; 48.0 KHz; 384 Kbps; CBR; 6 ch (Eng)
Субтитры: русские [.srt]; кодировка ANSI-

Скриншоты

Скриншот с названием



MediaInfo

Complete name : \Ludi-teny_(2013).HDRip.XviD.ac3_[All.Films][RG].avi
Format : AVI
Format/Info : Audio Video Interleave
File size : 1.46 GiB
Duration : 1h 28mn
Overall bit rate : 2 349 Kbps
Movie name : Люди-тени / Дверь / Shadow people / The Door (2013) HDRip [All.Films][RG]
Director : / [rutracker.org]
Writing application : VirtualDubMod 1.5.10.3 | www.virtualdub-fr.org || (build 2550/release)
Video
ID : 0
Format : MPEG-4 Visual
Format profile : Advanced Simple@L5
Format settings, BVOP : 1
Format settings, QPel : No
Format settings, GMC : No warppoints
Format settings, Matrix : Custom
Codec ID : XVID
Codec ID/Hint : XviD
Duration : 1h 28mn
Bit rate : 1 567 Kbps
Width : 704 pixels
Height : 288 pixels
Display aspect ratio : 2.40:1
Frame rate : 23.976 fps
Color space : YUV
Chroma subsampling : 4:2:0
Bit depth : 8 bits
Scan type : Progressive
Compression mode : Lossy
Bits/(Pixel*Frame) : 0.322
Stream size : 997 MiB (67%)
Writing library : XviD 73
Audio #1
ID : 1
Format : AC-3
Format/Info : Audio Coding 3
Mode extension : CM (complete main)
Format settings, Endianness : Big
Codec ID : 2000
Duration : 1h 28mn
Bit rate mode : Constant
Bit rate : 384 Kbps
Channel(s) : 6 channels
Channel positions : Front: L C R, Side: L R, LFE
Sampling rate : 48.0 KHz
Bit depth : 16 bits
Compression mode : Lossy
Stream size : 244 MiB (16%)
Alignment : Split accross interleaves
Interleave, duration : 42 ms (1.00 video frame)
Interleave, preload duration : 500 ms
Audio #2
ID : 2
Format : AC-3
Format/Info : Audio Coding 3
Mode extension : CM (complete main)
Format settings, Endianness : Big
Codec ID : 2000
Duration : 1h 28mn
Bit rate mode : Constant
Bit rate : 384 Kbps
Channel(s) : 6 channels
Channel positions : Front: L C R, Side: L R, LFE
Sampling rate : 48.0 KHz
Bit depth : 16 bits
Compression mode : Lossy
Stream size : 244 MiB (16%)
Alignment : Split accross interleaves
Interleave, duration : 42 ms (1.00 video frame)
Interleave, preload duration : 500 ms
General

Сравнение

http://rutracker.org/forum/viewtopic.php?t=4405061 -> # (низкий спектр звуковой дорожки):Здесь:

Rus

Eng

+ оригинальная дорожка и русские субтитры.
Качество видео аналогично: http://screenshotcomparison.com/comparison/21528
-
 
Показать сообщения:    

Текущее время: Сегодня 07:31

Часовой пояс: GMT



Вы не можете начинать темы
Вы не можете отвечать на сообщения
Вы не можете редактировать свои сообщения
Вы не можете удалять свои сообщения
Вы не можете голосовать в опросах
Вы не можете прикреплять файлы к сообщениям
Вы не можете скачивать файлы