Важное объявление!
У Нас Все раздачи мультитрекерные, при нуле пиров в релизах, можете смело вставать на закачку!
 
Автор Сообщение

HUNTER

Стаж:
4 года 4 месяца
Сообщений:
56848

Репутация: 101

[+] [-]
Вне форума [Профиль] [ЛС]

Любовь – странная штука / Странная штука - любовь / Love Is Strange
Страна: США, Франция, Бразилия, Греция
Жанр: мелодрама, драма, трагикомедия
Год выпуска: 2014
Продолжительность: 01:34:44
Перевод: Субтитры от БлогБастер
Cубтитры: русские
Оригинальная аудиодорожка: английский
Режиссер: Айра Сакс / Ira Sachs
В ролях: Джон Литгоу, Альфред Молина, Мариса Томей, Даррен Бёрроуз, Чарли Тахэн, Шейенн Джексон, Мэнни Перез, Кристина Кёрк
Описание: Бен – художник, Джордж – учитель музыки в церковной школе. Прожив вместе 39 лет, они решили пожениться. И за это Джорджа уволили со службы. Лишившись значительной доли дохода, они вынуждены продать квартиру. Но на поиски нового жилья нужно время, и они просят временного приюта у родственников и друзей. Бен попадает в семью племянника и его своенравной жены-писательницы, а Джорджа забирают друзья-соседи, пара геев-полицейских. Преодолевая вынужденную разлуку, пожилые супруги начинают искать места для встреч…
Сэмпл: http://rusfolder.com/42976179
Тип релиза: BDRip 1080p
Контейнер: MKV
Видео: AVC, 8389 кбит/сек, 23,976 кадра/сек, 1920х1040
Аудио: (английский) DTS 5.1, 1510 Кбит/сек, 48,0 КГц
Формат субтитров: softsub (SRT)

MediaInfo

Общее
Уникальный идентификатор : 235139500501174603799269918537805279895 (0xB0E638737F469114B387DD9E2E293297)
Полное имя : E:\Скаченное с Интернета\µTorrent законченные\Love Is Strange.mkv
Формат : Matroska
Версия формата : Version 4 / Version 2
Размер файла : 6,55 Гбайт
Продолжительность : 1 ч. 34 м.
Общий поток : 9892 Кбит/сек
Дата кодирования : UTC 2015-02-13 15:14:32
Программа кодирования : mkvmerge v6.0.0 ('Coming Up For Air') built on Jan 20 2013 09:52:00
Библиотека кодирования : libebml v1.3.0 + libmatroska v1.4.0
Видео
Идентификатор : 1
Формат : AVC
Формат/Информация : Advanced Video Codec
Профиль формата : High@L4.1
Параметр CABAC формата : Да
Параметр ReFrames формата : 4 кадра
Идентификатор кодека : V_MPEG4/ISO/AVC
Продолжительность : 1 ч. 34 м.
Битрейт : 8389 Кбит/сек
Ширина : 1920 пикселей
Высота : 1040 пикселей
Соотношение сторон : 1,85:1
Частота кадров : 23,976 кадра/сек
Цветовое пространство : YUV
Субдискретизация насыщенности : 4:2:0
Битовая глубина : 8 бит
Тип развёртки : Прогрессивная
Бит/(Пиксели*Кадры) : 0.175
Размер потока : 5,42 Гбайт (83%)
Библиотека кодирования : x264 core 144 r2525 40bb568
Настройки программы : cabac=1 / ref=4 / deblock=1:-1:-1 / analyse=0x3:0x113 / me=umh / subme=7 / psy=1 / psy_rd=1.00:0.00 / mixed_ref=1 / me_range=16 / chroma_me=1 / trellis=1 / 8x8dct=1 / cqm=0 / deadzone=21,11 / fast_pskip=1 / chroma_qp_offset=-2 / threads=12 / lookahead_threads=2 / sliced_threads=0 / nr=0 / decimate=1 / interlaced=0 / bluray_compat=0 / constrained_intra=0 / bframes=3 / b_pyramid=2 / b_adapt=2 / b_bias=0 / direct=3 / weightb=1 / open_gop=0 / weightp=2 / keyint=250 / keyint_min=23 / scenecut=40 / intra_refresh=0 / rc_lookahead=40 / rc=2pass / mbtree=1 / bitrate=8389 / ratetol=1.0 / qcomp=0.60 / qpmin=0 / qpmax=69 / qpstep=4 / cplxblur=20.0 / qblur=0.5 / vbv_maxrate=50000 / vbv_bufsize=50000 / nal_hrd=none / filler=0 / ip_ratio=1.40 / aq=1:1.00
Язык : English
Default : Да
Forced : Нет
Аудио
Идентификатор : 2
Формат : DTS
Формат/Информация : Digital Theater Systems
Идентификатор кодека : A_DTS
Продолжительность : 1 ч. 34 м.
Вид битрейта : Постоянный
Битрейт : 1510 Кбит/сек
Каналы : 6 каналов
Расположение каналов : Front: L C R, Side: L R, LFE
Частота : 48,0 КГц
Битовая глубина : 24 бит
Метод сжатия : С потерями
Размер потока : 1023 Мбайт (15%)
Язык : English
Default : Да
Forced : Нет
Текст
Идентификатор : 3
Формат : UTF-8
Идентификатор кодека : S_TEXT/UTF8
Идентификатор кодека/Информация : UTF-8 Plain Text
Язык : Russian
Default : Да
Forced : Нет

Скриншоты



_________________
Показать сообщения:    

Текущее время: Сегодня 05:13

Часовой пояс: GMT



Вы не можете начинать темы
Вы не можете отвечать на сообщения
Вы не можете редактировать свои сообщения
Вы не можете удалять свои сообщения
Вы не можете голосовать в опросах
Вы не можете прикреплять файлы к сообщениям
Вы не можете скачивать файлы
Наши партнеры: интернет магазин Ивановского трикотажа textilla.ru