Важное объявление!
У Нас Все раздачи мультитрекерные, при нуле пиров в релизах, можете смело вставать на закачку!
 
Автор Сообщение

HUNTER

Стаж:
4 года 4 месяца
Сообщений:
56734

Репутация: 101

[+] [-]
Вне форума [Профиль] [ЛС]

Любовь с уведомлением / Two Weeks Notice
Страна: США, Австралия
Жанр: мелодрама, комедия
Год выпуска: 2002
Продолжительность: 01:41:11
Перевод: Профессиональный (дублированный) | iTunes Russia
Cубтитры: русские, английские
Оригинальная аудиодорожка: английский
Режиссер: Марк Лоуренс / Marc Lawrence
В ролях: Сандра Буллок, Хью Грант, Алисия Уитт, Дэна Айви, Роберт Клейн, Хезер Бёрнс, Дэвид Хэйг, Дориан Миссик, Джозеф Бадалуччо мл., Джонатан Докучиц
Описание: Джордж Уэйд и шага не может сделать без Люси Келсон, работающей главным консультантом в его корпорации. Однако обращается он с ней скорее как с няней, а не как с блестящим юристом, окончившим Гарвард. По прошествии года все это надоедает Люси, и она решает уволиться. Джордж соглашается ее отпустить, но с одним условием — она должна найти себе достойную замену...

Исходник: Любовь с уведомлением / Two Weeks Notice (2002) 1080p BD-Remux
Тип релиза: BDRemux 1080p | sample
Контейнер: MKV
Видео: MPEG-4 AVC Video / 18865 kbps / 1080p / 23.976 fps / 16:9 / High Profile 4.0
Аудио #1: Russian AC3 6ch 48kHz 384Kbps | Dub iTunes Russia
Аудио #2: English DTS-HD MA / 5.1 / 48 kHz / 3590 kbps / 24-bit (DTS Core: 5.1 / 48 kHz / 1509 kbps / 24-bit) | Original
Аудио #3: English AC3 2ch 48kHz 192Kbps | Commentary
Формат субтитров: softsub (SRT)
Главы: есть

MediaInfo

General
Complete name : D:\...\Two.Weeks.Notice.2002.1080p.Remux.AVC.Rus.Eng.mkv
Format : Matroska
Format version : Version 2
File size : 16.3 GiB
Duration : 1h 41mn
Overall bit rate mode : Variable
Overall bit rate : 23.0 Mbps
Movie name : Two.Weeks.Notice.2002.1080p.Remux.AVC.Rus.Eng
Encoded date : UTC 2014-02-03 07:22:49
Writing application : mkvmerge v6.5.0 ('Isn't she lovely') built on Oct 20 2013 12:50:05
Writing library : libebml v1.3.0 + libmatroska v1.4.1
Video
ID : 1
Format : AVC
Format/Info : Advanced Video Codec
Format profile : High@L4.0
Format settings, CABAC : Yes
Format settings, ReFrames : 2 frames
Codec ID : V_MPEG4/ISO/AVC
Duration : 1h 41mn
Bit rate mode : Variable
Bit rate : 20.4 Mbps
Width : 1 920 pixels
Height : 1 080 pixels
Display aspect ratio : 16:9
Frame rate mode : Constant
Frame rate : 23.976 fps
Color space : YUV
Chroma subsampling : 4:2:0
Bit depth : 8 bits
Scan type : Progressive
Bits/(Pixel*Frame) : 0.411
Stream size : 14.4 GiB (89%)
Title : Two Weeks Notice (2002)
Language : English
Default : Yes
Forced : No
Audio #1
ID : 2
Format : AC-3
Format/Info : Audio Coding 3
Mode extension : CM (complete main)
Format settings, Endianness : Big
Codec ID : A_AC3
Duration : 1h 41mn
Bit rate mode : Constant
Bit rate : 384 Kbps
Channel(s) : 6 channels
Channel positions : Front: L C R, Side: L R, LFE
Sampling rate : 48.0 KHz
Bit depth : 16 bits
Compression mode : Lossy
Stream size : 278 MiB (2%)
Title : Dub iTunes Russia
Language : Russian
Default : Yes
Forced : No
Audio #2
ID : 3
Format : DTS
Format/Info : Digital Theater Systems
Format profile : MA / Core
Codec ID : A_DTS
Duration : 1h 41mn
Bit rate mode : Variable
Bit rate : 1 561 Kbps / 1 510 Kbps
Channel(s) : 6 channels
Channel positions : Front: L C R, Side: L R, LFE
Sampling rate : 48.0 KHz
Bit depth : 24 bits
Compression mode : Lossless / Lossy
Title : Original
Language : English
Default : No
Forced : No
Audio #3
ID : 4
Format : AC-3
Format/Info : Audio Coding 3
Format profile : Dolby Digital
Mode extension : CM (complete main)
Format settings, Endianness : Big
Codec ID : A_AC3
Duration : 1h 41mn
Bit rate mode : Constant
Bit rate : 192 Kbps
Channel(s) : 2 channels
Channel positions : Front: L R
Sampling rate : 48.0 KHz
Bit depth : 16 bits
Compression mode : Lossy
Stream size : 139 MiB (1%)
Title : Commentary
Language : English
Default : No
Forced : No
Text #1
ID : 5
Format : UTF-8
Codec ID : S_TEXT/UTF8
Codec ID/Info : UTF-8 Plain Text
Language : Russian
Default : No
Forced : No
Text #2
ID : 6
Format : UTF-8
Codec ID : S_TEXT/UTF8
Codec ID/Info : UTF-8 Plain Text
Language : English
Default : No
Forced : No
Text #3
ID : 7
Format : UTF-8
Codec ID : S_TEXT/UTF8
Codec ID/Info : UTF-8 Plain Text
Title : SDH
Language : English
Default : No
Forced : No
Menu
00:00:00.000 : :00:00:00.000
00:02:21.558 : :00:02:21.558
00:04:31.396 : :00:04:31.396
00:06:44.863 : :00:06:44.863
00:11:11.921 : :00:11:11.921
00:15:11.536 : :00:15:11.536
00:20:27.101 : :00:20:27.101
00:23:39.752 : :00:23:39.752
00:28:48.769 : :00:28:48.769
00:31:41.233 : :00:31:41.233
00:35:41.306 : :00:35:41.306
00:39:27.865 : :00:39:27.865
00:41:01.501 : :00:41:01.501
00:43:32.318 : :00:43:32.318
00:49:05.526 : :00:49:05.526
00:53:39.299 : :00:53:39.299
00:55:57.896 : :00:55:57.896
01:00:18.907 : :01:00:18.907
01:04:41.795 : :01:04:41.795
01:08:31.190 : :01:08:31.190
01:14:14.992 : :01:14:14.992
01:15:49.211 : :01:15:49.211
01:19:52.121 : :01:19:52.121
01:23:12.946 : :01:23:12.946
01:25:17.112 : :01:25:17.112
01:28:09.326 : :01:28:09.326
01:32:33.256 : :01:32:33.256
01:36:14.978 : :01:36:14.978

Скриншоты



_________________
Показать сообщения:    

Текущее время: Сегодня 11:03

Часовой пояс: GMT



Вы не можете начинать темы
Вы не можете отвечать на сообщения
Вы не можете редактировать свои сообщения
Вы не можете удалять свои сообщения
Вы не можете голосовать в опросах
Вы не можете прикреплять файлы к сообщениям
Вы не можете скачивать файлы