Важное объявление!
У Нас Все раздачи мультитрекерные, при нуле пиров в релизах, можете смело вставать на закачку!
 
Автор Сообщение

HUNTER

Стаж:
4 года 4 месяца
Сообщений:
56733

Репутация: 101

[+] [-]
Вне форума [Профиль] [ЛС]

Любовь на два полюса
Страна: Россия, Украина, Star Media
Жанр: мелодрама
Год выпуска: 2011
Продолжительность: 01:29:27
Субтитры: нет
Режиссер: Роман Барабаш
В ролях: Юлия Маврина, Владимир Епифанцев, Олег Харитонов, Ёла Санько, Лина Будник, Андрей Мостренко, Александр Ярема, Михаил Шикула, Игорь Тенетко, Валентин Шестопалов
Описание: Чему подчиниться – голосу разума или зову сердца? Именно перед таким выбором оказалась героиня нашей истории Вероника. На одном полюсе – семилетний брак со следователем прокуратуры Виктором Арзаусом. Брак счастливый, как казалось окружающим, но без любви, о чем знала только сама Ника. На другом полюсе – внезапно вспыхнувшая любовь к Кириллу Филину, нелегальнyю деятельность которого расследует муж Вероники.

Автор рипа / записи: fanatus
Исходник: Запись с телеканала РОССИЯ HD
Качество: HDTVRip 720p
Формат: MKV
Видео кодек: H.264
Аудио кодек: AC3
Видео: MPEG-4 AVC, 4400 kbps , 1280x720 (16:9), 25.000 fps, 0.191 bit/pixel
Аудио: AC3, 2 ch, 48 kHz, 192 kbps
MediaInfo
General
Unique ID : 178391044578597683481344155489044546943 (0x8634DD8E8DB2E605BD158F63C4C4457F)
Complete name : E:\Ljubov na dva poljusa.2011.x264.HDTVRip.720p.fanatus.mkv
Format : Matroska
Format version : Version 2
File size : 2.87 GiB
Duration : 1h 29mn
Overall bit rate : 4 593 Kbps
Movie name : Ljubov na dva poljusa (2011) - fanatus
Encoded date : UTC 2013-09-24 19:46:13
Writing application : mkvmerge v3.4.0 ('Rapunzel') сборка от May 15 2010 09:38:20
Writing library : libebml v0.8.0 + libmatroska v0.9.0
Video
ID : 1
Format : AVC
Format/Info : Advanced Video Codec
Format profile : High@L4.1
Format settings, CABAC : Yes
Format settings, ReFrames : 9 frames
Codec ID : V_MPEG4/ISO/AVC
Duration : 1h 29mn
Bit rate : 4 400 Kbps
Width : 1 280 pixels
Height : 720 pixels
Display aspect ratio : 16:9
Frame rate : 25.000 fps
Color space : YUV
Chroma subsampling : 4:2:0
Bit depth : 8 bits
Scan type : Progressive
Bits/(Pixel*Frame) : 0.191
Stream size : 2.69 GiB (94%)
Title : Ljubov na dva poljusa (2011)
Writing library : x264 core 138 r2358 9e941d1
Encoding settings : cabac=1 / ref=9 / deblock=1:-3:-3 / analyse=0x3:0x113 / me=umh / subme=10 / psy=1 / psy_rd=1.05:0.15 / mixed_ref=1 / me_range=32 / chroma_me=1 / trellis=2 / 8x8dct=1 / cqm=0 / deadzone=21,11 / fast_pskip=0 / chroma_qp_offset=-3 / threads=16 / lookahead_threads=2 / sliced_threads=0 / nr=0 / decimate=0 / interlaced=0 / bluray_compat=0 / constrained_intra=0 / bframes=9 / b_pyramid=2 / b_adapt=2 / b_bias=0 / direct=3 / weightb=1 / open_gop=0 / weightp=2 / keyint=250 / keyint_min=25 / scenecut=40 / intra_refresh=0 / rc=2pass / mbtree=0 / bitrate=4400 / ratetol=1.0 / qcomp=0.65 / qpmin=0 / qpmax=69 / qpstep=4 / cplxblur=20.0 / qblur=0.5 / ip_ratio=1.40 / pb_ratio=1.30 / aq=1:0.80
Language : Russian
Default : No
Forced : No
Color primaries : BT.709-5, BT.1361, IEC 61966-2-4, SMPTE RP177
Transfer characteristics : BT.709-5, BT.1361
Matrix coefficients : BT.709-5, BT.1361, IEC 61966-2-4 709, SMPTE RP177
Audio
ID : 2
Format : AC-3
Format/Info : Audio Coding 3
Mode extension : CM (complete main)
Format settings, Endianness : Big
Codec ID : A_AC3
Duration : 1h 29mn
Bit rate mode : Constant
Bit rate : 192 Kbps
Channel(s) : 2 channels
Channel positions : Front: L R
Sampling rate : 48.0 KHz
Bit depth : 16 bits
Compression mode : Lossy
Stream size : 123 MiB (4%)
Language : Russian
Default : Yes
Forced : No
Скриншот c названием фильмаСкриншоты

_________________
Показать сообщения:    

Текущее время: Сегодня 21:03

Часовой пояс: GMT



Вы не можете начинать темы
Вы не можете отвечать на сообщения
Вы не можете редактировать свои сообщения
Вы не можете удалять свои сообщения
Вы не можете голосовать в опросах
Вы не можете прикреплять файлы к сообщениям
Вы не можете скачивать файлы