Важное объявление!
У Нас Все раздачи мультитрекерные, при нуле пиров в релизах, можете смело вставать на закачку!
 
Автор Сообщение

HUNTER

Стаж:
4 года 4 месяца
Сообщений:
56755

Репутация: 101

[+] [-]
Вне форума [Профиль] [ЛС]

Любовь и голуби
Страна: СССР
Студия: Мосфильм
Жанр: Комедия, мелодрама
Год выхода: 1984
Продолжительность: 01:44:44
Перевод: Не требуется
Субтитры: Русские
Режиссер:
Владимир Меньшов
В ролях:
Людмила Гурченко, Нина Дорошина, Янина Лисовская, Игорь Лях, Александр Михайлов, Сергей Юрский, Владимир Меньшов, Наталья Тенякова, Лада Сизоненко
Описание:
Веселая и поучительная история об измене и возвращении в родной дом сибиряка Василия Кузякина (А. Михайлов). Получив на работе травму, он был направлен для поправки здоровья в санаторий, где случился у него курортный роман. Следствием этого факта стали травмы куда более серьезные - душевные, которые нанес Василий своим близким. И расплатиться за легкомысленный поступок герою фильма окажется куда сложнее, чем совершить его...

MediaInfo:

General
Unique ID : 171336318165684475086939867560135624386 (0x80E62CB0BA0753C098365B067C4406C2)
Complete name : D:\отдача\Lubov.i.goluby.1984.BDRip720p.mkv
Format : Matroska
Format version : Version 2
File size : 6.01 GiB
Duration : 1h 44mn
Overall bit rate : 8 218 Kbps
Encoded date : UTC 2012-08-05 02:52:09
Writing application : mkvmerge v5.6.0 ('Kenya Kane') built on Jun 29 2012 15:01:44
Writing library : libebml v1.2.3 + libmatroska v1.3.0
Video
ID : 1
Format : AVC
Format/Info : Advanced Video Codec
Format profile : High@L4.1
Format settings, CABAC : Yes
Format settings, ReFrames : 4 frames
Codec ID : V_MPEG4/ISO/AVC
Duration : 1h 44mn
Bit rate : 6 482 Kbps
Width : 1 280 pixels
Height : 720 pixels
Display aspect ratio : 16:9
Frame rate : 23.976 fps
Color space : YUV
Chroma subsampling : 4:2:0
Bit depth : 8 bits
Scan type : Progressive
Bits/(Pixel*Frame) : 0.293
Stream size : 4.62 GiB (77%)
Title : Video
Writing library : x264 core 125 r2200 999b753
Encoding settings : cabac=1 / ref=4 / deblock=1:-1:-1 / analyse=0x3:0x113 / me=umh / subme=7 / psy=1 / psy_rd=1.00:0.10 / mixed_ref=1 / me_range=16 / chroma_me=1 / trellis=2 / 8x8dct=1 / cqm=0 / deadzone=21,11 / fast_pskip=0 / chroma_qp_offset=-3 / threads=6 / lookahead_threads=1 / sliced_threads=0 / nr=0 / decimate=1 / interlaced=0 / bluray_compat=0 / constrained_intra=0 / bframes=3 / b_pyramid=2 / b_adapt=2 / b_bias=0 / direct=3 / weightb=1 / open_gop=0 / weightp=2 / keyint=250 / keyint_min=23 / scenecut=40 / intra_refresh=0 / rc_lookahead=50 / rc=2pass / mbtree=1 / bitrate=6482 / ratetol=1.0 / qcomp=0.60 / qpmin=0 / qpmax=69 / qpstep=4 / cplxblur=20.0 / qblur=0.5 / vbv_maxrate=50000 / vbv_bufsize=50000 / nal_hrd=none / ip_ratio=1.40 / aq=1:1.00
Language : Russian
Default : Yes
Forced : No
Audio #1
ID : 2
Format : DTS
Format/Info : Digital Theater Systems
Codec ID : A_DTS
Duration : 1h 44mn
Bit rate mode : Constant
Bit rate : 1 510 Kbps
Channel(s) : 6 channels
Channel positions : Front: L C R, Side: L R, LFE
Sampling rate : 48.0 KHz
Bit depth : 24 bits
Compression mode : Lossy
Stream size : 1.10 GiB (18%)
Title : DTS 6 ch
Language : Russian
Default : Yes
Forced : No
Audio #2
ID : 3
Format : AC-3
Format/Info : Audio Coding 3
Mode extension : CM (complete main)
Format settings, Endianness : Big
Codec ID : A_AC3
Duration : 1h 44mn
Bit rate mode : Constant
Bit rate : 224 Kbps
Channel(s) : 1 channel
Channel positions : Front: C
Sampling rate : 48.0 KHz
Bit depth : 16 bits
Compression mode : Lossy
Stream size : 168 MiB (3%)
Title : AC3 1 ch
Language : Russian
Default : No
Forced : No
Text
ID : 4
Format : UTF-8
Codec ID : S_TEXT/UTF8
Codec ID/Info : UTF-8 Plain Text
Language : Russian
Default : No
Forced : No
Качество: BDRip 720p
Формат: MKV
Видео кодек: MPEG-4 AVC
Аудио кодек: DTS, AC3
Видео: MPEG-4 AVC, 1280x720, 23.976 fps, ~6482 Kbps
Аудио1: DTS, 48 kHz, 6 ch, ~1510 kbps
Аудио2: AC3, 48 kHz, 1 ch, ~224 kbps
Скриншоты:

_________________
Показать сообщения:    

Текущее время: Сегодня 17:12

Часовой пояс: GMT



Вы не можете начинать темы
Вы не можете отвечать на сообщения
Вы не можете редактировать свои сообщения
Вы не можете удалять свои сообщения
Вы не можете голосовать в опросах
Вы не можете прикреплять файлы к сообщениям
Вы не можете скачивать файлы