Важное объявление!
У Нас Все раздачи мультитрекерные, при нуле пиров в релизах, можете смело вставать на закачку!
 
Автор Сообщение

димитри37

Стаж:
3 года 9 месяцев
Сообщений:
1237

Репутация: 127

[+] [-]
Вне форума [Профиль] [ЛС]

Любовь за любовь
Год выпуска: 2013
Производство: Star Media
Жанр: Историческая мелодрама
Продолжительность: 00:45:00
Субтитры: Отсутствуют
Режиссёр: Сергей Ашкенази
В ролях: Ирина Виноградова, Анна Пескова, Максим Матвеев, Сергей Шакуров, Михаил Пореченков, Алексей Гуськов, Владимир Машков, Валерий Афанасьев и другие.
Описание: Весна 1914 года. Канун Первой мировой войны. Уланский полк, в котором служит поручик Александр Григорьев стоит в заштатном малороссийском городке. Офицеры томятся от скуки, вне службы проводят время в убогом трактире. Пьют, спускают в карты, и без того, небольшое жалование. Однажды городской аптекарь, представил поручика местному богачу - коммерции советнику Стаховскому, чья племянница Нина, при случайной встрече, пленила Григорьева своей красотой. Его пригласили к Стаховским. Он был поражен роскошью и изысканностью их дома, а также радушию, с которым был принят. Поручик весь вечер танцевал с Ниной, но вдруг спохватился, что забыл пригласит на вальс дочь Стаховского, хорошенькую семнадцатилетнюю Леру. Он поспешил исправить оплошность, но в ответ на его приглашение девушка неожиданно разрыдалась. Он сразу не понял в чем дело, смешался и отошел. А через пять минут узнал от Нины (та испуганно увела его из гостиной), что Лера больна, что в результате несчастного случая, ее ноги парализованы, и с тех пор она прикована к инвалидной коляске. Поручик смущенно ретировался. И чтоб загладить вину, он, на последние деньги, купил огромный букет драгоценных роз, и послал их Лере. Девушка ответила благодарным письмом и новым приглашением.

Рип чистый. Без посторонних надписей. Выкладывается как есть.
Качество: HDTV 1080i
Контейнер: TS
Видео кодек: AVC
Аудио кодек: AC3
Видео: 1920x1080 (16:9) 25.000 fps 7 838 Kbps, 0.151 bit/pixel
Аудио: MPEG Audio 48000Hz stereo 192 Кбит/сек

Скриншоты


MI

GeneralID : 1 (0x1)Complete name : J:\ВЫКЛАДКА\HDTV\Сериалы\Любовь за любовь (2013, Историческая мелодрама, HDTV) (MYDIMKA)\01 серия.tsFormat : MPEG-TSFile size : 2.74 GiBDuration : 46mn 17sOverall bit rate mode : VariableOverall bit rate : 8 461 Kbps
VideoID : 2931 (0xB73)Menu ID : 1 (0x1)Format : AVCFormat/Info : Advanced Video CodecFormat profile : High@L4.0Format settings, CABAC : YesFormat settings, ReFrames : 3 framesCodec ID : 27Duration : 46mn 17sBit rate : 7 849 KbpsWidth : 1 920 pixelsHeight : 1 080 pixelsDisplay aspect ratio : 16:9Frame rate : 25.000 fpsColor space : YUVChroma subsampling : 4:2:0Bit depth : 8 bitsScan type : MBAFFBits/(Pixel*Frame) : 0.151Stream size : 2.54 GiB (93%)
AudioID : 2932 (0xB74)Menu ID : 1 (0x1)Format : MPEG AudioFormat version : Version 1Format profile : Layer 2Mode : Joint stereoMode extension : Intensity Stereo + MS StereoCodec ID : 3Duration : 46mn 17sBit rate mode : ConstantBit rate : 192 KbpsChannel(s) : 2 channelsSampling rate : 48.0 KHzCompression mode : LossyStream size : 63.6 MiB (2%)Language : Russian
TextID : 2934 (0xB76)-888Menu ID : 1 (0x1)Format : Teletext SubtitleLanguage : Russian
MenuID : 2930 (0xB72)Menu ID : 1 (0x1)Duration : 46mn 17sList : 2931 (0xB73) (AVC) / 2932 (0xB74) (MPEG Audio, Russian) / 2934 (0xB76) ()Language : / Russian

Внимание! Раздача ведётся путём добавления новых выпусков

Внимание! Раздача ведётся путём добавления новых выпусков; при каждом добавлении создётся новый торрент. Чтобы начать докачку нового выпуска, пользователям необходимо сделать следующее:
(1) остановить скачивание,
(2) удалить старый торрент у себя из клиента (старые выпуски удалять не надо),
(3) скачать новый торрент и запустить его у себя в клиенте вместо старого, при этом указать клиенту путь в старую папку куда и должно происходить скачивание новых выпусков.
Ваш клиент при этом должен произвести хеширование (проверку) старой папки (если не производит сам - помогите ему сделать это), и будет докачивать только те выпуски которых у вас ещё нет. Старые выпуски при этом не удаляются, а продолжают раздаваться!
Eсли вы уже удалили старые выпуски, то предотвратить повторную закачку старых выпусков можно, отжав галочку в соответсвующих местах при запуске нового торрента. По возможности, желательно не удалять старые выпуски как можно дольше чтобы релизёр не столько продолжал раздавать старые выпуски, а смог сконцентрироваться на новых.
Показать сообщения:    

Текущее время: Сегодня 14:02

Часовой пояс: GMT



Вы не можете начинать темы
Вы не можете отвечать на сообщения
Вы не можете редактировать свои сообщения
Вы не можете удалять свои сообщения
Вы не можете голосовать в опросах
Вы не можете прикреплять файлы к сообщениям
Вы не можете скачивать файлы