Важное объявление!
У Нас Все раздачи мультитрекерные, при нуле пиров в релизах, можете смело вставать на закачку!
 
Автор Сообщение

HUNTER

Стаж:
4 года 4 месяца
Сообщений:
56722

Репутация: 101

[+] [-]
Вне форума [Профиль] [ЛС]

Любовь вразнос / Papa ou maman
Страна: Франция, Бельгия
Студия: Canal+ [fr]
Жанр: комедия
Год выпуска: 2015
Продолжительность: 01:24:33
Перевод: Профессиональный (дублированный) BD RUS
Cубтитры: немецкие
Оригинальная аудиодорожка: французский
Режиссер: Мартин Бурбулон / Martin Bourboulon
В ролях: Лоран Лафитт, Марина Фоис, Александр Десрусу, Анна Лемаршан, Акилле Потье, Жюдит Эль Зейн, Микаэль Абитбуль, Ванесса Гуид, Мишель Вюйермоз, Анн Ле Ни
Описание: Они безбашенные и отвязные, и любят вразнос. Изменило ли их время и обстоятельства? Чтобы проверить это, они идут на крайние меры — объявляют друг другу войну. А на войне, как известно, все средства хороши..

Исходник: Papa ou maman 2015 1080p GER Blu-ray AVC DTS-HD MA 5.1-GMB
Тип релиза: BDRip 720p / Tonik
Контейнер: MKV
Видео: MPEG-4 AVC, 6517 Кбит/с, 1280x530, 23,976 fps
Аудио: Rus, DTS, 1510 kb/s (6 ch), 48 kHz
Аудио 2: Fre, DTS, 1510 kb/s (6 ch), 48 kHz
Формат субтитров: softsub (SRT)

MediaInfo

x264 [info]: frame I:948 Avg QP:13.06 size:115142
x264 [info]: frame P:29836 Avg QP:14.69 size: 56617
x264 [info]: frame B:90849 Avg QP:16.11 size: 27022
x264 [info]: consecutive B-frames: 5.7% 4.3% 9.3% 15.3% 15.2% 27.9% 10.2% 8.0% 1.5% 0.8% 1.9%
Format : Matroska
Format version : Version 4 / Version 2
File size : 5.75 GiB
Duration : 1h 24mn
Overall bit rate : 9 728 Kbps
Movie name : Любовь вразнос. (Tonik)
Encoded date : UTC 2015-11-30 14:24:00
Writing application : mkvmerge v7.1.0 ('Good Love') 64bit built on Jul 27 2014 13:06:55
Writing library : libebml v1.3.0 + libmatroska v1.4.1
DURATION : 01:22:54.386000000
NUMBER_OF_FRAMES : 981
NUMBER_OF_BYTES : 40473
_STATISTICS_WRITING_APP : mkvmerge v7.1.0 ('Good Love') 64bit built on Jul 27 2014 13:06:55
_STATISTICS_WRITING_DATE_UTC : 2015-11-30 14:24:00
_STATISTICS_TAGS : BPS DURATION NUMBER_OF_FRAMES NUMBER_OF_BYTES
Video
ID : 1
Format : AVC
Format/Info : Advanced Video Codec
Format profile : High@L4.1
Format settings, CABAC : Yes
Format settings, ReFrames : 12 frames
Codec ID : V_MPEG4/ISO/AVC
Duration : 1h 24mn
Bit rate : 6 517 Kbps
Width : 1 280 pixels
Height : 530 pixels
Display aspect ratio : 2.40:1
Frame rate mode : Constant
Frame rate : 23.976 fps
Color space : YUV
Chroma subsampling : 4:2:0
Bit depth : 8 bits
Scan type : Progressive
Bits/(Pixel*Frame) : 0.401
Stream size : 3.85 GiB (67%)
Writing library : x264 core 148 r2597 e86f3a1
Encoding settings : cabac=1 / ref=12 / deblock=1:-3:-3 / analyse=0x3:0x133 / me=umh / subme=11 / psy=1 / psy_rd=1.00:0.00 / mixed_ref=1 / me_range=32 / chroma_me=1 / trellis=2 / 8x8dct=1 / cqm=0 / deadzone=21,11 / fast_pskip=0 / chroma_qp_offset=-2 / threads=12 / lookahead_threads=3 / sliced_threads=0 / nr=0 / decimate=0 / interlaced=0 / bluray_compat=0 / constrained_intra=0 / bframes=10 / b_pyramid=2 / b_adapt=2 / b_bias=0 / direct=3 / weightb=1 / open_gop=0 / weightp=2 / keyint=250 / keyint_min=23 / scenecut=40 / intra_refresh=0 / rc=crf / mbtree=0 / crf=16.0 / qcomp=0.60 / qpmin=0 / qpmax=69 / qpstep=4 / ip_ratio=1.40 / pb_ratio=1.30 / aq=1:1.00
Language : English
Default : Yes
Forced : No
DURATION : 01:24:33.115000000
NUMBER_OF_FRAMES : 121633
NUMBER_OF_BYTES : 4253302817
_STATISTICS_WRITING_APP : mkvmerge v7.1.0 ('Good Love') 64bit built on Jul 27 2014 13:06:55
_STATISTICS_WRITING_DATE_UTC : 2015-11-30 14:24:00
_STATISTICS_TAGS : BPS DURATION NUMBER_OF_FRAMES NUMBER_OF_BYTES
Audio #1
ID : 2
Format : DTS
Format/Info : Digital Theater Systems
Mode : 16
Format settings, Endianness : Big
Codec ID : A_DTS
Duration : 1h 24mn
Bit rate mode : Constant
Bit rate : 1 509 Kbps
Channel(s) : 6 channels
Channel positions : Front: L C R, Side: L R, LFE
Sampling rate : 48.0 KHz
Bit depth : 16 bits
Compression mode : Lossy
Stream size : 913 MiB (16%)
Language : Russian
Default : Yes
Forced : No
Audio #2
ID : 3
Format : DTS
Format/Info : Digital Theater Systems
Mode : 16
Format settings, Endianness : Big
Codec ID : A_DTS
Duration : 1h 24mn
Bit rate mode : Constant
Bit rate : 1 509 Kbps
Channel(s) : 6 channels
Channel positions : Front: L C R, Side: L R, LFE
Sampling rate : 48.0 KHz
Bit depth : 24 bits
Compression mode : Lossy
Stream size : 913 MiB (16%)
Language : French
Default : No
Forced : No
Text
ID : 4
Format : UTF-8
Codec ID : S_TEXT/UTF8
Codec ID/Info : UTF-8 Plain Text
Language : German
Default : No
Forced : No
Menu
00:00:00.000 : :Chapter 01
00:07:36.706 : :Chapter 02
00:13:02.573 : :Chapter 03
00:19:21.994 : :Chapter 04
00:25:44.793 : :Chapter 05
00:32:32.075 : :Chapter 06
00:39:13.559 : :Chapter 07
00:44:35.381 : :Chapter 08
00:52:33.859 : :Chapter 09
00:59:24.102 : :Chapter 10
01:07:25.583 : :Chapter 11
01:15:15.928 : :Chapter 12
01:24:32.609 : :Chapter 13

Скриншоты


_________________
Показать сообщения:    

Текущее время: Сегодня 10:59

Часовой пояс: GMT



Вы не можете начинать темы
Вы не можете отвечать на сообщения
Вы не можете редактировать свои сообщения
Вы не можете удалять свои сообщения
Вы не можете голосовать в опросах
Вы не можете прикреплять файлы к сообщениям
Вы не можете скачивать файлы