Важное объявление!
У Нас Все раздачи мультитрекерные, при нуле пиров в релизах, можете смело вставать на закачку!
 
Автор Сообщение

HUNTER

Стаж:
4 года 4 месяца
Сообщений:
56765

Репутация: 101

[+] [-]
Вне форума [Профиль] [ЛС]

Любовь-морковь 3
-Страна: Россия
Жанр: комедия
Год выпуска: 2010
Продолжительность: 01:37:40
Перевод: Не требуется
Cубтитры: русские-Режиссер: Сергей Гинзбург-В ролях: Кристина Орбакайте, Гоша Куценко, Лия Ахеджакова, Владимир Меньшов, Алексей Гуськов, Вячеслав Манучаров, Алина Булынко, Денис Парамонов, Михаил Козаков, Андрей Ургант-Описание: В семье Голубевых - опять стихийное бедствие. Без предупреждения к ним нагрянула теща - утонченная любительница музыки и поэзии. А за ней свекор - бравый полковник, простой как Устав Вооруженных сил. Хотя со времени свадьбы прошло почти пятнадцать лет, мама Марины по-прежнему недолюбливает Андрея, а отец Андрея даже не скрывает, что мечтал о другой невестке. А уж когда старики сталкиваются друг с другом - это гром и молния! И как всегда, в самый сложный момент на пороге появляется профессор Коган, специалист по решению семейных проблем.- -Сохранены оригинальные чаптеры как на Blu-ray-Тип релиза: BDRip 720p
Контейнер: MKV
Видео: 1280x544 at 23.976 fps, x264@L4.1, crf, ~6160 kbps avg
Аудио: 48 kHz, DTS, 3/2 (L,C,R,l,r) + LFE ch, ~1536.00 kbps avg-РАЗДАЧА ОТ: -

MediaInfo

General
Unique ID : 238092438178288785252511097387857159550 (0xB31EEF84EBF0CA3CA932D9E627EB257E)
Complete name : Lybov.morkov.3.2010.720p.BluRay.Rus.HDCLUB.mkv
Format : Matroska
File size : 5.34 GiB
Duration : 1h 37mn
Overall bit rate : 7 826 Kbps
Movie name : Любовь-морковь 3 (2010) - Release for HDCLUB
Encoded date : UTC 2011-06-20 01:34:12
Writing application : mkvmerge v4.8.0 ('I Got The...') сборка от May 24 2011 03:12:58
Writing library : libebml v1.2.0 + libmatroska v1.1.0
Video
ID : 1
Format : AVC
Format/Info : Advanced Video Codec
Format profile : High@L4.1
Format settings, CABAC : Yes
Format settings, ReFrames : 10 frames
Codec ID : V_MPEG4/ISO/AVC
Duration : 1h 37mn
Bit rate : 6 160 Kbps
Width : 1 280 pixels
Height : 544 pixels
Display aspect ratio : 2.35:1
Frame rate : 23.976 fps
Color space : YUV
Chroma subsampling : 4:2:0
Bit depth : 8 bits
Scan type : Progressive
Bits/(Pixel*Frame) : 0.369
Stream size : 4.20 GiB (79%)
Title : Любовь-морковь 3 (2010) - Release for HDCLUB
Writing library : x264 core 115 r1995 c1e60b9
Encoding settings : cabac=1 / ref=10 / deblock=1:-3:-3 / analyse=0x3:0x133 / me=umh / subme=10 / psy=1 / psy_rd=1.00:0.00 / mixed_ref=1 / me_range=64 / chroma_me=1 / trellis=2 / 8x8dct=1 / cqm=0 / deadzone=21,11 / fast_pskip=0 / chroma_qp_offset=-2 / threads=9 / sliced_threads=0 / nr=0 / decimate=0 / interlaced=0 / bluray_compat=0 / constrained_intra=0 / bframes=9 / b_pyramid=2 / b_adapt=2 / b_bias=0 / direct=3 / weightb=1 / open_gop=0 / weightp=2 / keyint=250 / keyint_min=23 / scenecut=40 / intra_refresh=0 / rc_lookahead=40 / rc=crf / mbtree=0 / crf=17.5 / qcomp=0.60 / qpmin=0 / qpmax=69 / qpstep=4 / vbv_maxrate=50000 / vbv_bufsize=62500 / crf_max=0.0 / nal_hrd=none / ip_ratio=1.40 / pb_ratio=1.30 / aq=1:0.80
Language : Russian
Audio
ID : 2
Format : DTS
Format/Info : Digital Theater Systems
Codec ID : A_DTS
Duration : 1h 37mn
Bit rate mode : Constant
Bit rate : 1 510 Kbps
Channel(s) : 6 channels
Channel positions : Front: L C R, Side: L R, LFE
Sampling rate : 48.0 KHz
Bit depth : 16 bits
Compression mode : Lossy
Stream size : 1.03 GiB (19%)
Language : Russian
Text
ID : 3
Format : UTF-8
Codec ID : S_TEXT/UTF8
Codec ID/Info : UTF-8 Plain Text
Language : Russian
Menu
00:00:00.000 : en:Chapter 01
00:06:02.111 : en:Chapter 02
00:11:16.384 : en:Chapter 03
00:17:04.773 : en:Chapter 04
00:22:44.946 : en:Chapter 05
00:28:43.596 : en:Chapter 06
00:35:38.219 : en:Chapter 07
00:41:04.295 : en:Chapter 08
00:47:56.081 : en:Chapter 09
00:54:14.834 : en:Chapter 10
00:59:51.170 : en:Chapter 11
01:06:40.287 : en:Chapter 12
01:13:27.986 : en:Chapter 13
01:18:31.748 : en:Chapter 14
01:28:18.251 : en:Chapter 15
01:34:15.691 : en:Chapter 16
01:37:40.437 : en:Chapter 17

Скриншоты


_________________
Показать сообщения:    

Текущее время: Сегодня 19:18

Часовой пояс: GMT



Вы не можете начинать темы
Вы не можете отвечать на сообщения
Вы не можете редактировать свои сообщения
Вы не можете удалять свои сообщения
Вы не можете голосовать в опросах
Вы не можете прикреплять файлы к сообщениям
Вы не можете скачивать файлы