Важное объявление!
У Нас Все раздачи мультитрекерные, при нуле пиров в релизах, можете смело вставать на закачку!
 
Автор Сообщение

HUNTER

Стаж:
4 года 4 месяца
Сообщений:
56842

Репутация: 101

[+] [-]
Вне форума [Профиль] [ЛС]

Любовный треугольник / Two Girls and a Guy-
-Страна: США
Жанр: комедия, драма
Год выпуска: 1997
Продолжительность: 1:25:40-Перевод:
Профессиональный двухголосый закадровый канал | СТС
Авторский одноголосый закадровый | А. Алексеев
Авторский одноголосый закадровый | П. Карцев
Cубтитры: русские, английские, испанские
Оригинальная аудиодорожка: английская-Режиссер: Джеймс Тобэк / James Toback-В ролях: Роберт Дауни мл. / Robert Downey Jr, Наташа Грегсон Вагнер / Natasha Gregson Wagner, Хэзер Грэм / Heather Graham, Энджел Дэвид / Angel David, Фредерик ван дер Вал / Frederique Van Der Wal-Описание: У некоторых парней и с одной девушкой бывают проблемы. У Блейка получилось сразу с двумя. Такие разные: шикарная и искушенная Карла, сексуальная и откровенная Лу удачно дополняли друг друга, не подозревая об этом. Мужчины иногда так делают. И Блейк попробовал…-Семпл-Релиз:
-Качество видео: BDRip by SbY
Формат: MKV
Источник: Two Girls and a Guy 1997 1080p Blu-ray AVC DTS-HD MA 5.1-HDRoad
Видео: AVC, 1280x688 (1.860), 23.976 fps, 7 700 Kbps (0.365 bit/pixel)
Аудио#1: Russian: 48 kHz, AC3 2.0, 192 kbps |Двухголосый закадровый, СТС|
Аудио#2: Russian: 48 kHz, AC3 5.1, 448 kbps |Авторский одноголосый закадровый, А. Алексеев|
Аудио#3: Russian: 48 kHz, AC3 2.0, 192 kbps |Авторский одноголосый закадровый, П. Карцев|
Аудио#4: English: 48 kHz/24-bit, DTS, 3/2 (L,C,R,l,r) + LFE ch, ~1510.00 kbps avg
Аудио#5: English: 48 kHz, AC3 2.0, 224 kbps |Commentary|
Субтитры: Russian (Forced), Russian, English, Spanish-MediaInfo
Код:
Format                                   : Matroska
Format version                           : Version 2
File size                                : 6.14 GiB
Duration                                 : 1h 25mn
Overall bit rate                         : 10.3 Mbps
Movie name                               : Two Girls and a Guy (1997) - Release for HDCLUB
Encoded date                             : UTC 2014-06-11 18:10:19
Writing application                      : mkvmerge v5.7.0 ('The Whirlwind') built on Jul  8 2012 20:08:51
Writing library                          : libebml v1.2.3 + libmatroska v1.3.0
Video
ID                                       : 1
Format                                   : AVC
Format/Info                              : Advanced Video Codec
Format profile                           : High@L4.1
Format settings, CABAC                   : Yes
Format settings, ReFrames                : 9 frames
Codec ID                                 : V_MPEG4/ISO/AVC
Duration                                 : 1h 25mn
Bit rate                                 : 7 700 Kbps
Width                                    : 1 280 pixels
Height                                   : 688 pixels
Display aspect ratio                     : 1.85:1
Frame rate mode                          : Constant
Frame rate                               : 23.976 fps
Color space                              : YUV
Chroma subsampling                       : 4:2:0
Bit depth                                : 8 bits
Scan type                                : Progressive
Bits/(Pixel*Frame)                       : 0.365
Stream size                              : 4.49 GiB (73%)
Writing library                          : x264 core 138 r2358 9e941d1
Encoding settings                        : cabac=1 / ref=9 / deblock=1:-3:-3 / analyse=0x3:0x133 / me=tesa / subme=10 / psy=1 / psy_rd=1.10:0.00 / mixed_ref=1 / me_range=24 / chroma_me=1 / trellis=2 / 8x8dct=1 / cqm=0 / deadzone=21,11 / fast_pskip=0 / chroma_qp_offset=-2 / threads=12 / lookahead_threads=3 / sliced_threads=0 / nr=0 / decimate=1 / interlaced=0 / bluray_compat=0 / constrained_intra=0 / bframes=11 / b_pyramid=2 / b_adapt=2 / b_bias=0 / direct=3 / weightb=1 / open_gop=0 / weightp=2 / keyint=250 / keyint_min=23 / scenecut=40 / intra_refresh=0 / rc=2pass / mbtree=0 / bitrate=7700 / ratetol=1.0 / qcomp=0.70 / qpmin=0 / qpmax=69 / qpstep=4 / cplxblur=20.0 / qblur=0.5 / ip_ratio=1.40 / pb_ratio=1.20 / aq=2:0.80
Language                                 : English
Default                                  : Yes
Forced                                   : No
Audio #1
ID                                       : 2
Format                                   : AC-3
Format/Info                              : Audio Coding 3
Mode extension                           : CM (complete main)
Format settings, Endianness              : Big
Codec ID                                 : A_AC3
Duration                                 : 1h 25mn
Bit rate mode                            : Constant
Bit rate                                 : 192 Kbps
Channel(s)                               : 2 channels
Channel positions                        : Front: L R
Sampling rate                            : 48.0 KHz
Bit depth                                : 16 bits
Compression mode                         : Lossy
Stream size                              : 118 MiB (2%)
Title                                    : |Двухголосый закадровый, СТС|
Language                                 : Russian
Default                                  : Yes
Forced                                   : No
Audio #2
ID                                       : 3
Format                                   : AC-3
Format/Info                              : Audio Coding 3
Mode extension                           : CM (complete main)
Format settings, Endianness              : Big
Codec ID                                 : A_AC3
Duration                                 : 1h 25mn
Bit rate mode                            : Constant
Bit rate                                 : 448 Kbps
Channel(s)                               : 6 channels
Channel positions                        : Front: L C R, Side: L R, LFE
Sampling rate                            : 48.0 KHz
Bit depth                                : 16 bits
Compression mode                         : Lossy
Stream size                              : 274 MiB (4%)
Title                                    : |Одноголосый закадровый, А. Алексеев|
Language                                 : Russian
Default                                  : No
Forced                                   : No
Audio #3
ID                                       : 4
Format                                   : AC-3
Format/Info                              : Audio Coding 3
Mode extension                           : CM (complete main)
Format settings, Endianness              : Big
Codec ID                                 : A_AC3
Duration                                 : 1h 25mn
Bit rate mode                            : Constant
Bit rate                                 : 192 Kbps
Channel(s)                               : 2 channels
Channel positions                        : Front: L R
Sampling rate                            : 48.0 KHz
Bit depth                                : 16 bits
Compression mode                         : Lossy
Stream size                              : 118 MiB (2%)
Title                                    : |Одноголосый закадровый, П. Карцев|
Language                                 : Russian
Default                                  : No
Forced                                   : No
Audio #4
ID                                       : 5
Format                                   : DTS
Format/Info                              : Digital Theater Systems
Mode                                     : 16
Format settings, Endianness              : Big
Codec ID                                 : A_DTS
Duration                                 : 1h 25mn
Bit rate mode                            : Constant
Bit rate                                 : 1 509 Kbps
Channel(s)                               : 6 channels
Channel positions                        : Front: L C R, Side: L R, LFE
Sampling rate                            : 48.0 KHz
Bit depth                                : 24 bits
Compression mode                         : Lossy
Stream size                              : 925 MiB (15%)
Language                                 : English
Default                                  : No
Forced                                   : No
Audio #5
ID                                       : 6
Format                                   : AC-3
Format/Info                              : Audio Coding 3
Mode extension                           : CM (complete main)
Format settings, Endianness              : Big
Codec ID                                 : A_AC3
Duration                                 : 1h 25mn
Bit rate mode                            : Constant
Bit rate                                 : 224 Kbps
Channel(s)                               : 2 channels
Channel positions                        : Front: L R
Sampling rate                            : 48.0 KHz
Bit depth                                : 16 bits
Compression mode                         : Lossy
Stream size                              : 137 MiB (2%)
Title                                    : |Commentary|
Language                                 : English
Default                                  : No
Forced                                   : No
Text #1
ID                                       : 7
Format                                   : UTF-8
Codec ID                                 : S_TEXT/UTF8
Codec ID/Info                            : UTF-8 Plain Text
Title                                    : Full
Language                                 : Russian
Default                                  : No
Forced                                   : No
Text #2
ID                                       : 8
Format                                   : UTF-8
Codec ID                                 : S_TEXT/UTF8
Codec ID/Info                            : UTF-8 Plain Text
Title                                    : Forced
Language                                 : Russian
Default                                  : Yes
Forced                                   : No
Text #3
ID                                       : 9
Format                                   : UTF-8
Codec ID                                 : S_TEXT/UTF8
Codec ID/Info                            : UTF-8 Plain Text
Language                                 : English
Default                                  : No
Forced                                   : No
Text #4
ID                                       : 10
Format                                   : UTF-8
Codec ID                                 : S_TEXT/UTF8
Codec ID/Info                            : UTF-8 Plain Text
Language                                 : Spanish
Default                                  : No
Forced                                   : No
Menu
00:00:00.000                             : :00:00:00.000
00:01:21.121                             : :00:01:21.121
00:03:20.491                             : :00:03:20.491
00:06:23.423                             : :00:06:23.423
00:09:17.932                             : :00:09:17.932
00:15:20.793                             : :00:15:20.793
00:21:22.530                             : :00:21:22.530
00:26:36.510                             : :00:26:36.510
00:32:53.637                             : :00:32:53.637
00:37:34.335                             : :00:37:34.335
00:39:41.461                             : :00:39:41.461
00:46:31.996                             : :00:46:31.996
00:54:24.927                             : :00:54:24.927
00:59:42.327                             : :00:59:42.327
01:02:31.746                             : :01:02:31.746
01:04:27.780                             : :01:04:27.780
01:10:41.694                             : :01:10:41.694
01:12:31.262                             : :01:12:31.262
01:15:59.554                             : :01:15:59.554
01:22:20.060                             : :01:22:20.060

-
Скриншоты

_________________
Показать сообщения:    

Текущее время: Сегодня 18:26

Часовой пояс: GMT



Вы не можете начинать темы
Вы не можете отвечать на сообщения
Вы не можете редактировать свои сообщения
Вы не можете удалять свои сообщения
Вы не можете голосовать в опросах
Вы не можете прикреплять файлы к сообщениям
Вы не можете скачивать файлы
Наши партнеры: интернет магазин Ивановского трикотажа textilla.ru