Важное объявление!
У Нас Все раздачи мультитрекерные, при нуле пиров в релизах, можете смело вставать на закачку!
 
Автор Сообщение

HUNTER

Стаж:
4 года 4 месяца
Сообщений:
56749

Репутация: 101

[+] [-]
Вне форума [Профиль] [ЛС]

Любовные авантюры«Ох уж эти мужчины!»---
Режиссёр Валерий ЗеленскийГод выпуска: 2004
Страна: Россия
Студия: Кинокомпания CTB
Жанр: мелодрама, комедия, приключения
Продолжительность: 02:38:11 (6 ~ 00:26:25)
Оригинальная аудиодорожка: русский
В ролях: Сергей Астахов, Арсений Ковальский, Любовь Тихомирова, Олег Каменщиков, Антон Макарский, Ольга Родионова, Эвклид Кюрдзидис, Анжела Голубева, Мария Юхананова, Андрей Кузнецов-Вечеслов (VII), Евгения Лютая...--Описание:
Эротический Декамерон, или мужские откровения. Ох уж эти мужчины! Они давали клятву никогда не жениться, но связали себя узами брака. Теперь они вспоминают о былых похождениях! Самые откровенные признания четырех мачо в пикантной комедии по мотивам романов Ги де Мопассана…--
--Исходник: DVD9 R5
Тип релиза: DVDRip
Контейнер: AVI
Видео:XviD
Аудио:MP3
Видео: 688x512 (4:3), 25 fps, XviD ~ 1178 kbps avg, 0.134 bit/pixel
Аудио: 48 kHz, MP3, 2 ch, 128.00 kbps--

Список серий

01. Аллума
02. Мадлен
03. Анриэтта
04. Анэтта
05. Мари
06. Иветта

MediaInfo

Общее
Полное имя : Lubovnye.avantyri.2004.DVDRip.avi
Формат : AVI
Формат/Информация : Audio Video Interleave
Размер файла : 257 Мбайт
Продолжительность : 27 м.
Общий поток : 1316 Кбит/сек
Программа кодирования : VirtualDubMod 1.5.10.3 | www.virtualdub-fr.org || (build 2550/release)
Библиотека кодирования : VirtualDubMod build 2550/release
Видео
Идентификатор : 0
Формат : MPEG-4 Visual
Профиль формата : Advanced Simple@L5
Параметр BVOP формата : 1
Параметр QPel формата : Нет
Параметр GMC формата : Без точки перехода
Параметр матрицы формата : Выборочная
Идентификатор кодека : XVID
Идентификатор кодека/Подсказка : XviD
Продолжительность : 27 м.
Битрейт : 1178 Кбит/сек
Ширина : 688 пикселей
Высота : 512 пикселей
Соотношение сторон : 4:3
Частота кадров : 25,000 кадров/сек
Цветовое пространство : YUV
Субдискретизация насыщенности : 4:2:0
Битовая глубина : 8 бит
Тип развёртки : Прогрессивная
Метод сжатия : С потерями
Бит/(Пиксели*Кадры) : 0.134
Размер потока : 230 Мбайт (90%)
Библиотека кодирования : XviD 65
Аудио
Идентификатор : 1
Формат : MPEG Audio
Версия формата : Version 1
Профиль формата : Layer 3
Идентификатор кодека : 55
Идентификатор кодека/Подсказка : MP3
Продолжительность : 27 м.
Вид битрейта : Постоянный
Битрейт : 128 Кбит/сек
Каналы : 2 канала
Частота : 48,0 КГц
Метод сжатия : С потерями
Размер потока : 25,0 Мбайт (10%)
Выравнивание : Соединение по промежуткам
Продолжительность промежутка : 40 мс. (1,00 видеокадр)
Время предзагрузки промежутка : 504 мс.
Библиотека кодирования : L3.99r
Настройки программы : -m s -V 4 -q 2 -lowpass 17 -b 128
-- --

_________________
Показать сообщения:    

Текущее время: Сегодня 22:33

Часовой пояс: GMT



Вы не можете начинать темы
Вы не можете отвечать на сообщения
Вы не можете редактировать свои сообщения
Вы не можете удалять свои сообщения
Вы не можете голосовать в опросах
Вы не можете прикреплять файлы к сообщениям
Вы не можете скачивать файлы