Важное объявление!
У Нас Все раздачи мультитрекерные, при нуле пиров в релизах, можете смело вставать на закачку!
 
Автор Сообщение

HUNTER

Стаж:
4 года 4 месяца
Сообщений:
56839

Репутация: 101

[+] [-]
Вне форума [Профиль] [ЛС]

Любовник / The Lover / Ha-Me'ahev-
Страна: Израиль
Жанр: драма
Год выпуска: 1985
Продолжительность: 01:27:10-Перевод: Профессиональный (двухголосый закадровый) НТВ+. Перевод Юрия Сербина. Текст читали Елена Солодилина и [url=profile.php?mode=viewprofile&u=4063051]Александр Воронов[/url].
Cубтитры: нет
Оригинальная аудиодорожка: английский-Режиссер: Михал Бат-Адам / Michal Bat-Adam
В ролях: Михал Бат-Адам, Авигайль Ариэли, Йорам Гаон, Eves Hativ, Noa Itzki, Awas Khatib, Фанни Любич, Роберто Поллак...- | Релиз: -Описание: По роману Авраама Б. Иегошуа, "Любовник". Действие в романе происходит в один из самых тяжёлых периодов израильской истории: войны Судного дня. Однако война тут далеко не основная сюжетная линия. Она даже не особо изменила уклад семьи: владельца гаража из Хайфы, школьной учительницы и их шестнадцатилетней дочери. Квартира также тщательно убрана, мать-синий чулок вечно пропадает на бесконечных курсах и уроках, отец равнодушен ко всему, дочь мучается от бессонницы, все обо всех заботятся, но каждый живёт как бы сам по себе, не вникая в жизнь другого. Что же связывает этих людей? Как ни странно любовь. Любовь, которую поначалу трудно разглядеть, ведь писатель о ней практически не говорит, и лишь вчитавшись, понимаешь какую невероятную, всепоглощающую любовь испытывает главный герой к своей жене, такую глубокую, что она даже толкает его найти своей жене любовника. А, когда этот любовник пропадает на войне, муж упорно, на протяжении долгих месяцев, его разыскивает.-Семпл: http://sendfile.su/1221184-Тип релиза: HDTV 1080i
Контейнер: TS
Видео: 1920x1080 (16:9), 25.000 fps, AVC, ~6591 Kbps, 0.127 bits/pixel
Аудио 1: Русский, 48.0 KHz, MPEG-1 Audio layer 2, 2 ch, 192 kbps
Аудио 2: English, 48.0 KHz, MPEG-1 Audio layer 2, 2 ch, 192 kbps

MediaInfo

GeneralID : 1 (0x1)Complete name : The Lover 1985 MGMHD DVO NTV+.rus.eng.tsFormat : MPEG-TSFile size : 4.47 GiBDuration : 1h 27mnOverall bit rate mode : VariableOverall bit rate : 7 342 KbpsMaximum Overall bit rate : 35.5 Mbps
VideoID : 4113 (0x1011)Menu ID : 1 (0x1)Format : AVCFormat/Info : Advanced Video CodecFormat profile : Main@L4Format settings, CABAC : YesFormat settings, ReFrames : 4 framesCodec ID : 27Duration : 1h 27mnBit rate mode : VariableBit rate : 6 591 KbpsMaximum bit rate : 40.0 MbpsWidth : 1 920 pixelsHeight : 1 080 pixelsDisplay aspect ratio : 16:9Frame rate : 25.000 fpsStandard : ComponentColor space : YUVChroma subsampling : 4:2:0Bit depth : 8 bitsScan type : InterlacedScan type, store method : Separated fieldsScan order : Top Field FirstBits/(Pixel*Frame) : 0.127Stream size : 4.01 GiB (90%)Color range : Limited
Audio #1ID : 4352 (0x1100)Menu ID : 1 (0x1)Format : MPEG AudioFormat version : Version 1Format profile : Layer 2Codec ID : 4Duration : 1h 27mnBit rate mode : ConstantBit rate : 192 KbpsChannel(s) : 2 channelsSampling rate : 48.0 KHzCompression mode : LossyStream size : 120 MiB (3%)Language : Russian
Audio #2ID : 4353 (0x1101)Menu ID : 1 (0x1)Format : MPEG AudioFormat version : Version 1Format profile : Layer 2Codec ID : 4Duration : 1h 27mnBit rate mode : ConstantBit rate : 192 KbpsChannel(s) : 2 channelsSampling rate : 48.0 KHzCompression mode : LossyStream size : 120 MiB (3%)Language : English

_________________
Показать сообщения:    

Текущее время: Сегодня 21:10

Часовой пояс: GMT



Вы не можете начинать темы
Вы не можете отвечать на сообщения
Вы не можете редактировать свои сообщения
Вы не можете удалять свои сообщения
Вы не можете голосовать в опросах
Вы не можете прикреплять файлы к сообщениям
Вы не можете скачивать файлы