Важное объявление!
У Нас Все раздачи мультитрекерные, при нуле пиров в релизах, можете смело вставать на закачку!
 
Автор Сообщение

HUNTER

Стаж:
4 года 4 месяца
Сообщений:
56733

Репутация: 101

[+] [-]
Вне форума [Профиль] [ЛС]

Любите Куперов / Love the Coopers
Страна: США
Студия: CBS Films, Imagine Entertainment
Жанр: комедия
Год выпуска: 2015
Продолжительность: 01:47:06
Перевод: Профессиональный (дублированный)
Cубтитры: английские
Оригинальная аудиодорожка: английский--Режиссер: Джесси Нельсон / Jessie Nelson--В ролях: Дайан Китон, Джон Гудман, Аманда Сайфред, Эд Хелмс, Энтони Маки, Мариса Томей, Оливия Уайлд, Алекс Борштейн, Тимоти Чаламет, Максвелл Симкинс, Блейк Баумгартнер, Алан Аркин, Дэн Амбойер...--Описание: Феерическая рождественская комедия о том, что бывает, когда на праздник собираются представители четырех поколений одной большой семьи…--Доп. информация: | IMDB | КиноПоиск | Сэмпл |--Тип релиза: BDRip 720p
Контейнер: MKV
Видео: AVC High@L4.1, 1280x534 at 23.976 fps, ~5 046 kbps avg
Аудио 1: DTS, 3/2 (L,C,R,l,r) + LFE ch, 48 kHz, ~1536.00 kbps avg
Аудио 2: DTS, 3/2 (L,C,R,l,r) + LFE ch, 48 kHz, ~1536.00 kbps avg
Формат субтитров: softsub (SRT)

Скриншоты

MediaInfo

General
Unique ID : 194443725215926429536038146882939736388 (0x92487FD16A029E0C9F3016A850695144)
Complete name : Love the Coopers (2015).mkv
Format : Matroska
Format version : Version 4 / Version 2
File size : 6.04 GiB
Duration : 1h 47mn
Overall bit rate : 8 068 Kbps
Movie name : Любите Куперов / Love the Coopers (2015)
Encoded date : UTC 2016-03-06 09:54:47
Writing application : mkvmerge v8.1.0 ('Psychedelic Postcard') 64bit
Writing library : libebml v1.3.1 + libmatroska v1.4.2
Cover : Yes
Attachments : cover.jpg
Video
ID : 1
Format : AVC
Format/Info : Advanced Video Codec
Format profile : High@L4.1
Format settings, CABAC : Yes
Format settings, ReFrames : 12 frames
Codec ID : V_MPEG4/ISO/AVC
Duration : 1h 47mn
Bit rate : 5 046 Kbps
Width : 1 280 pixels
Height : 534 pixels
Display aspect ratio : 2.40:1
Frame rate mode : Constant
Frame rate : 23.976 (24000/1001) fps
Color space : YUV
Chroma subsampling : 4:2:0
Bit depth : 8 bits
Scan type : Progressive
Bits/(Pixel*Frame) : 0.308
Stream size : 3.78 GiB (63%)
Title : Love the Coopers
Writing library : x264 core 148 r2638 7599210
Encoding settings : cabac=1 / ref=12 / deblock=1:-3:-3 / analyse=0x3:0x133 / me=umh / subme=10 / psy=1 / psy_rd=1.00:0.00 / mixed_ref=1 / me_range=48 / chroma_me=1 / trellis=2 / 8x8dct=1 / cqm=0 / deadzone=21,11 / fast_pskip=1 / chroma_qp_offset=-2 / threads=8 / lookahead_threads=2 / sliced_threads=0 / nr=0 / decimate=1 / interlaced=0 / bluray_compat=0 / constrained_intra=0 / bframes=10 / b_pyramid=2 / b_adapt=2 / b_bias=0 / direct=3 / weightb=1 / open_gop=0 / weightp=2 / keyint=250 / keyint_min=23 / scenecut=40 / intra_refresh=0 / rc_lookahead=150 / rc=crf / mbtree=0 / crf=16.0 / qcomp=0.65 / qpmin=0 / qpmax=69 / qpstep=4 / vbv_maxrate=50000 / vbv_bufsize=62500 / crf_max=0.0 / nal_hrd=none / filler=0 / ip_ratio=1.20 / pb_ratio=1.20 / aq=3:0.75 / zones=0,824,crf=15.0/16064,16324,crf=15.0/20802,21021,crf=15.5/88917,90338,crf=15.5/109374,111955,crf=15.0/113362,117615,crf=15.0/140035,140180,crf=15.5/146740,146884,crf=15.5/149134,149184,crf=15.5/151899,151960,crf=15.5/153872,154026,crf=15.0
Language : English
Default : Yes
Forced : No
Audio #1
ID : 2
Format : DTS
Format/Info : Digital Theater Systems
Mode : 16
Format settings, Endianness : Big
Codec ID : A_DTS
Duration : 1h 47mn
Bit rate mode : Constant
Bit rate : 1 510 Kbps
Channel(s) : 6 channels
Channel positions : Front: L C R, Side: L R, LFE
Sampling rate : 48.0 KHz
Frame rate : 93.750 fps (512 spf)
Bit depth : 24 bits
Compression mode : Lossy
Stream size : 1.13 GiB (19%)
Title : Дубляж
Language : Russian
Default : Yes
Forced : No
Audio #2
ID : 3
Format : DTS
Format/Info : Digital Theater Systems
Mode : 16
Format settings, Endianness : Big
Codec ID : A_DTS
Duration : 1h 47mn
Bit rate mode : Constant
Bit rate : 1 509 Kbps
Channel(s) : 6 channels
Channel positions : Front: L C R, Side: L R, LFE
Sampling rate : 48.0 KHz
Frame rate : 93.750 fps (512 spf)
Bit depth : 24 bits
Compression mode : Lossy
Stream size : 1.13 GiB (19%)
Language : English
Default : No
Forced : No
Text #1
ID : 4
Format : UTF-8
Codec ID : S_TEXT/UTF8
Codec ID/Info : UTF-8 Plain Text
Duration : 1h 43mn
Bit rate : 72 bps
Count of elements : 1719
Stream size : 55.2 KiB (0%)
Language : English
Default : No
Forced : No
Text #2
ID : 5
Format : UTF-8
Codec ID : S_TEXT/UTF8
Codec ID/Info : UTF-8 Plain Text
Duration : 1h 46mn
Bit rate : 77 bps
Count of elements : 1890
Stream size : 60.0 KiB (0%)
Title : SDH
Language : English
Default : No
Forced : No
Menu
00:00:00.000 : en:Chapter 1
00:08:00.980 : en:Chapter 2
00:15:39.480 : en:Chapter 3
00:25:04.336 : en:Chapter 4
00:31:57.290 : en:Chapter 5
00:37:10.228 : en:Chapter 6
00:42:54.280 : en:Chapter 7
00:51:20.953 : en:Chapter 8
00:56:59.499 : en:Chapter 9
01:01:31.187 : en:Chapter 10
01:08:51.210 : en:Chapter 11
01:13:29.739 : en:Chapter 12
01:21:34.848 : en:Chapter 13
01:27:21.778 : en:Chapter 14
01:33:52.001 : en:Chapter 15
01:38:46.504 : en:Chapter 16

_________________
Показать сообщения:    

Текущее время: Сегодня 21:31

Часовой пояс: GMT



Вы не можете начинать темы
Вы не можете отвечать на сообщения
Вы не можете редактировать свои сообщения
Вы не можете удалять свои сообщения
Вы не можете голосовать в опросах
Вы не можете прикреплять файлы к сообщениям
Вы не можете скачивать файлы