Важное объявление!
У Нас Все раздачи мультитрекерные, при нуле пиров в релизах, можете смело вставать на закачку!
 
Автор Сообщение

HUNTER

Стаж:
4 года 4 месяца
Сообщений:
56848

Репутация: 101

[+] [-]
Вне форума [Профиль] [ЛС]

Любит не любит
Год выпуска: 2014
Производство: Россия, Патриот Продакшнс, Yellow, Black & White
Жанр: Комедия
Продолжительность: 01:18:18
Субтитры: нет
Режиссёр:Клим Шипенко
В ролях: Максим Матвеев, Светлана Ходченкова, Юрий Колокольников, Любовь Аксенова, Сергей Газаров, Екатерина Васильева, Максим Виторган, Александр Ратников, Никита Панфилов, Олег Комаров
Описание: Леша и Алена вот-вот должны пожениться. И все бы ничего, если бы не знакомство Леши с известной журналисткой Ирой накануне помолвки. Её образ никак не вписывается в рамки привычной для Алексея жизни. Ира вносит хаос в его жизнь, а Алёна - наивная девушка, любит его таким, какой он есть, и мечтает стать его женой. Авантюризм Иры и ее готовность совершать безумные поступки дают Леше понять, что его жизнь может быть гораздо красочнее. Но готов ли он к авантюрным поступкам, когда на кону счастливое будущее с Аленой?

Качество: HDTV 1080i
Контейнер: TS
Видео: MPEG4 Video (H264) 1920x1080, ~ 8732 Кбит/сек, 25.00fps 0.168 bit/pixel
Аудио: MP2, 2 канала, 48,0 КГц, ~256 kbps
Аудио: AC3, 6 канала, 48,0 КГц, ~384 Кбит/с
Сторонней рекламы нет!

MI

ОбщееИдентификатор : 1 (0x1)Полное имя : F:\Lybit.ne.lybit.HDTV(1080i).GeneralFilm.tsФормат : MPEG-TSРазмер файла : 5,40 ГбайтПродолжительность : 1 ч. 18 м.Общий поток : 9798 Кбит/сек
ВидеоИдентификатор : 5481 (0x1569)Идентификатор меню : 80 (0x50)Формат : AVCФормат/Информация : Advanced Video CodecПрофиль формата : High@L4.0Параметр CABAC формата : ДаПараметр ReFrames формата : 3 кадраИдентификатор кодека : 27Продолжительность : 1 ч. 18 м.Битрейт : 8732 Кбит/секШирина : 1920 пикс.Высота : 1080 пикс.Соотношение сторон : 16:9Частота кадров : 25,000 кадр/секСтандарт вещания : ComponentЦветовое пространство : YUVПодвыборка цветности : 4:2:0Битовая глубина : 8 битТип развёртки : ЧересстрочнаяПорядок развёртки : Верхнее поле первоеБит/(Пиксели*Кадры) : 0.168Размер потока : 4,82 Гбайт (89%)Основные цвета : BT.709-5, BT.1361, IEC 61966-2-4, SMPTE RP177Характеристики трансфера : BT.709-5, BT.1361Коэффициенты матрицы : BT.709-5, BT.1361, IEC 61966-2-4 709, SMPTE RP177
Аудио #1Идентификатор : 5484 (0x156C)Идентификатор меню : 80 (0x50)Формат : AC-3Формат/Информация : Audio Coding 3Расширение режима : CM (complete main)Идентификатор кодека : 6Продолжительность : 1 ч. 18 м.Вид битрейта : ПостоянныйБитрейт : 384 Кбит/секКаналы : 6 каналовРасположение каналов : Front: L C R, Side: L R, LFEЧастота : 48,0 КГцБитовая глубина : 16 битМетод сжатия : С потерямиЗадержка видео : -40 мс.Размер потока : 217 Мбайт (4%)Язык : Russian
Аудио #2Идентификатор : 5485 (0x156D)Идентификатор меню : 80 (0x50)Формат : MPEG AudioВерсия формата : Version 1Профиль формата : Layer 2Идентификатор кодека : 3Продолжительность : 1 ч. 18 м.Вид битрейта : ПостоянныйБитрейт : 192 Кбит/секКаналы : 2 каналаЧастота : 48,0 КГцМетод сжатия : С потерямиЗадержка видео : -40 мс.Размер потока : 108 Мбайт (2%)Язык : Russian
Раздача группы:
Отдельное спасибо olegka7373 за предоставление материала.
Релиз:

Скриншоты

Скриншот с названием фильма


_________________
Показать сообщения:    

Текущее время: Сегодня 04:35

Часовой пояс: GMT



Вы не можете начинать темы
Вы не можете отвечать на сообщения
Вы не можете редактировать свои сообщения
Вы не можете удалять свои сообщения
Вы не можете голосовать в опросах
Вы не можете прикреплять файлы к сообщениям
Вы не можете скачивать файлы
Наши партнеры: интернет магазин Ивановского трикотажа textilla.ru