Важное объявление!
У Нас Все раздачи мультитрекерные, при нуле пиров в релизах, можете смело вставать на закачку!
 
Автор Сообщение

димитри37

Стаж:
3 года 9 месяцев
Сообщений:
1237

Репутация: 127

[+] [-]
Вне форума [Профиль] [ЛС]

Любимая игрушка рейхсфюрера СС
Год выпуска: 2013
Страна: Россия
Выпущено: "ТГ Документальное кино Леонида Млечина", ТВЦ
Жанр: Документальный
Продолжительность: 00:38:29
Перевод: Не требуется
Русские субтитры: нет
Режиссер: Екатерина Гальперина
Описание: Гитлер сделал политическую карьеру, воспевая германскую нацию и, призывая к уничтожению "неполноценных народов". Но до Первой мировой войны Адольф Гитлер не подозревал о расовой теории. Он узнал о ней лишь в начале 20-х годов. Одним из вдохновителей нацистской идеологии стал зять знаменитого композитора Рихарда Вагнера – англичанин Хьюстон Стюард Чемберлен. Возненавидев свою родину, он перебрался в Германию и поселился в имении Вагнера в Байройте. В своих книгах он воспевал германскую нацию и призывал к уничтожению "низших рас", чтобы те освободили жизненное пространство для арийцев. После прихода нацистов к власти воплощением в жизнь расовой теории занялся рейхсфюрер СС Гиммлер. В средневековом замке Вевельсбург он разместил "Аненербе" – организацию, проводившую чудовищные эксперименты над людьми. Замок Вевельсбург, построенный в 17-м столетии, и по сей день рождает мрачные фантазии. Именно здесь Гиммлер сказал своим подчиненным, что им предстоит уничтожить 30 миллионов славян. У Гиммлера было раздвоение личности: он существовал в реалиях Третьего рейха, а жил тевтонскими фантазиями. Он верил, что в жилах древних германцев бежал волшебный элексир - чистая арийская кровь, еще не замутненная смешением рас, и мечтал возродить ее. Все, в ком течет чуждая кровь, даже младенцы, должны быть уничтожены, чтобы освободить жизненное пространство для носителей арийской крови. Идеалом нацистов был высокий, стройный человек с длинным и узким черепом, светлыми волосами и голубыми глазами. Кстати, сам Гиммлер мало соответствовал собственному идеалу. Особенно ему не нравилось его лицо – широкое и круглое. Он выбривал голову с боков, чтобы череп казался более узким. Какие легенды ходят вокруг "Аненербе"? Сколько человеческих жизней на её счету? Как закончил свою жизнь директор Института военно-научных исследований "Аненербе" Вольфрам Зиверс?
качество: IPTVRip
формат: AVI
видеокодек: XviD
аудиокодек: MP3
Видео: 704x512 (1.38:1), 25 fps, XviD MPEG-4 ~1668 kbps avg, 0.19 bit/pixel
Аудио: 48 kHz, MPEG Layer 3, 2 ch, ~128.00 kbps avg

MediaInfo

Format : AVI
Format/Info : Audio Video Interleave
File size : 497 MiB
Duration : 38mn 29s
Overall bit rate : 1 806 Kbps
Writing application : VirtualDubMod 1.5.10.2 (build 2540/release)
Writing library : VirtualDubMod build 2540/release
Video
ID : 0
Format : MPEG-4 Visual
Format profile : Advanced Simple@L5
Format settings, BVOP : Yes
Format settings, QPel : No
Format settings, GMC : No warppoints
Format settings, Matrix : Default (H.263)
Muxing mode : Packed bitstream
Codec ID : XVID
Codec ID/Hint : XviD
Duration : 38mn 29s
Bit rate : 1 669 Kbps
Width : 704 pixels
Height : 512 pixels
Display aspect ratio : 1.375
Frame rate : 25.000 fps
Resolution : 8 bits
Colorimetry : 4:2:0
Scan type : Progressive
Bits/(Pixel*Frame) : 0.185
Stream size : 459 MiB (92%)
Writing library : XviD 64
Audio
ID : 1
Format : MPEG Audio
Format version : Version 1
Format profile : Layer 3
Format_Settings_Mode : Joint stereo
Codec ID : 55
Codec ID/Hint : MP3
Duration : 38mn 29s
Bit rate mode : Constant
Bit rate : 128 Kbps
Channel(s) : 2 channels
Sampling rate : 48.0 KHz
Stream size : 35.2 MiB (7%)
Alignment : Aligned on interleaves
Interleave, duration : 40 ms (1.00 video frame)
Interleave, preload duration : 504 ms

Скриншоты

-
Показать сообщения:    

Текущее время: Сегодня 02:22

Часовой пояс: GMT



Вы не можете начинать темы
Вы не можете отвечать на сообщения
Вы не можете редактировать свои сообщения
Вы не можете удалять свои сообщения
Вы не можете голосовать в опросах
Вы не можете прикреплять файлы к сообщениям
Вы не можете скачивать файлы