Важное объявление!
У Нас Все раздачи мультитрекерные, при нуле пиров в релизах, можете смело вставать на закачку!
 
Автор Сообщение

HUNTER

Стаж:
4 года 4 месяца
Сообщений:
56734

Репутация: 101

[+] [-]
Вне форума [Профиль] [ЛС]

Лунный переполох / Moonbeam Bear and His Friends
Страна: Германия, Caligari Film, Wunde
Жанр: Мультфильм, детский, семейный, приключения, полнометражный
Продолжительность: 01:06:35
Год выпуска: 2008
Перевод: Профессиональный (дублированный)
Русские субтитры: нет
Режиссёр: Майк Маурус / Mike Maurus , Томас Боденштейн / Thomas Bodenstein
Описание: История о том, как звери возвращали на небо пропавший месяц. Хаос и волнение в лесу — с неба исчез месяц! Барсук, лягушка, утка и божья коровка, натыкаясь друг на друга в темноте, отправляются искать пропажу. Вдруг они видят яркий свет, который исходит из домика Медвежонка. Звери с трудом могут поверить своим глазам: Медвежонок и месяц мирно сидят за столиком и играют в шашки... Звери не знают, как поступить. Они считают, что месяц немедленно должен вернуться на небо, но как это организовать? Ко всему прочему, в уютном домике Медвежонка месяц сначала задремал, а потом крепко заснул. Теперь даже удар грома не сможет разбудить небесного гостя. Медвежонок и его друзья отправляются на поиски солнечной птицы, под радостное щебетание которой по утрам просыпается весь лес, значит, и месяц тоже проснется!
Сэмпл: http://sendfile.su/1070250
Качество: SATRip
Формат: AVI
Видео: Xvid 720x400 25fps 2 100 Kbps
Аудио: AC3 48000Hz stereo 192kbps
Субтитры: отсутствуют

Подробные технические данные

C:\Users\Dmitriy\Documents\Лунный переполох.2008.XviD.SATRip.avi General Complete name : C:\Users\Dmitriy\Documents\Лунный переполох.2008.XviD.SATRip.avi Format : AVI Format/Info : Audio Video Interleave File size : 1.07 GiB Duration : 1h 6mn Overall bit rate : 2 302 Kbps Director : SATRip by Thunder Writing application : VirtualDubMod 1.5.10.3 | www.virtualdub-fr.org || (build 2550/release) Original source form/Name : Cartoon Video #0 ID : 0 Format : MPEG-4 Visual Format profile : Advanced Simple@L5 Format settings, BVOP : Yes Format settings, QPel : No Format settings, GMC : No warppoints Format settings, Matrix : Default (H.263) Codec ID : XVID Codec ID/Hint : XviD Duration : 1h 6mn Bit rate : 2 100 Kbps Width : 720 pixels Height : 400 pixels Display aspect ratio : 16:9 Frame rate : 25.000 fps Color space : YUV Chroma subsampling : 4:2:0 Bit depth : 8 bits Scan type : Progressive Bits/(Pixel*Frame) : 0.292 Stream size : 1 000 MiB (91%) Writing library : XviD 1.2.1 (UTC 2008-12-04) Audio #1 ID : 1 Format : AC-3 Format/Info : Audio Coding 3 Mode extension : CM (complete main) Codec ID : 2000 Duration : 1h 6mn Bit rate mode : Constant Bit rate : 192 Kbps Channel(s) : 2 channels Channel positions : Front: L R Sampling rate : 48.0 KHz Bit depth : 16 bits Stream size : 91.5 MiB (8%) Alignment : Split accross interleaves Interleave, duration : 40 ms (1.00 video frame) Interleave, preload duration : 500 ms

Скриншоты



_________________
Показать сообщения:    

Текущее время: Сегодня 17:01

Часовой пояс: GMT



Вы не можете начинать темы
Вы не можете отвечать на сообщения
Вы не можете редактировать свои сообщения
Вы не можете удалять свои сообщения
Вы не можете голосовать в опросах
Вы не можете прикреплять файлы к сообщениям
Вы не можете скачивать файлы