Важное объявление!
У Нас Все раздачи мультитрекерные, при нуле пиров в релизах, можете смело вставать на закачку!
 
Автор Сообщение

HUNTER

Стаж:
4 года 4 месяца
Сообщений:
56842

Репутация: 101

[+] [-]
Вне форума [Профиль] [ЛС]

Лохматый прокурор / Лохматая собака / The Shaggy D.A.
Страна: США
Студия: Walt Disney Productions
Жанр: комедия, семейный
Год выпуска: 1976
Продолжительность: 01:31:48
Перевод: Профессиональный (многоголосый закадровый)
Cубтитры: английские
Оригинальная аудиодорожка: английский
Режиссер: Роберт Стивенсон / Robert Stevenson
В ролях: Дин Джонс, Тим Конуэй, Сюзанн Плешетт, Кинен Уинн, Джо Энн Уорли, Дик Ван Паттен, Шэйн Синутко, Вик Тейбэк, Джон Майерс, Ричард Бакалян и др.
Описание: Продолжение комедии "Лохматый пес" 1959 года, в которой подросток превращался в мохнатую собачку. В этом фильме мальчик - уже не мальчик, а преуспевающий юрист из районной прокуратуры. Он выдвигает свою кандидатуру на пост окружного прокурора, неожиданно обнаруживает, что периодически превращается в собаку. Однако он вынужден держать все в секрете до тех пор, пока не выяснит причину происходящего.
II Сэмпл II IMDB II
Доп. информация:
За многоголоску спасибо DD4678
Тип релиза: WEB-DL 1080p
Контейнер: MKV
Видео: AVC / 1920x1080 / 16:9 / 23.976fps / Bit rate 5321Kbps
Аудио 1: AC3 / 48.0 KHz / 2ch. / 192kbps / rus / MVO
Аудио 2: AAC-LC / 48.0 KHz / 2ch. / 110kbps / eng
Формат субтитров: softsub (SRT)

MediaInfo

Общее
Уникальный идентификатор : 236771885537900509515552804658027248691 (0xB2209B3F4D0FE5E2AE65C297A6313C33)
Полное имя : G:\!!!_torrent\The.Shaggy.D.A.1976.WEB-DL.1080p_by_vedigo.mkv
Формат : Matroska
Версия формата : Version 4 / Version 2
Размер файла : 3,61 Гбайт
Продолжительность : 1 ч. 31 м.
Общий поток : 5625 Кбит/сек
Название фильма : The.Shaggy.D.A.1976.WEB-DL.1080p_by_vedigo
Дата кодирования : UTC 2015-12-03 02:34:25
Программа кодирования : mkvmerge v8.6.1 ('Flying') 64bit
Библиотека кодирования : libebml v1.3.3 + libmatroska v1.4.4
Видео
Идентификатор : 1
Формат : AVC
Формат/Информация : Advanced Video Codec
Профиль формата : High@L4
Параметр CABAC формата : Да
Параметр ReFrames формата : 4 кадра
Идентификатор кодека : V_MPEG4/ISO/AVC
Продолжительность : 1 ч. 31 м.
Битрейт : 5321 Кбит/сек
Ширина : 1920 пикселей
Высота : 1080 пикселей
Соотношение сторон : 16:9
Режим частоты кадров : Постоянный
Частота кадров : 23,976 кадра/сек
Цветовое пространство : YUV
Субдискретизация насыщенности : 4:2:0
Битовая глубина : 8 бит
Тип развёртки : Прогрессивная
Бит/(Пиксели*Кадры) : 0.107
Размер потока : 3,41 Гбайт (95%)
Заголовок : The.Shaggy.D.A.1976.WEB-DL.1080p_by_vedigo
Default : Да
Forced : Нет
Цветовой диапазон : Limited
Основные цвета : BT.709
Характеристики трансфера : BT.709
Коэффициенты матрицы : BT.709
Аудио #1
Идентификатор : 2
Формат : AC-3
Формат/Информация : Audio Coding 3
Расширение режима : CM (complete main)
Параметр Endianness формата : Big
Идентификатор кодека : A_AC3
Продолжительность : 1 ч. 31 м.
Вид битрейта : Постоянный
Битрейт : 192 Кбит/сек
Каналы : 2 канала
Расположение каналов : Front: L R
Частота : 48,0 КГц
Частота кадров : 31,250 кадров/сек (1536 spf)
Метод сжатия : С потерями
Размер потока : 126 Мбайт (3%)
Заголовок : MVO
Язык : Russian
Default : Да
Forced : Нет
Аудио #2
Идентификатор : 3
Формат : AAC
Формат/Информация : Advanced Audio Codec
Профиль формата : LC
Идентификатор кодека : A_AAC
Продолжительность : 1 ч. 31 м.
Битрейт : 110 Кбит/сек
Каналы : 2 канала
Расположение каналов : Front: L R
Частота : 48,0 КГц
Частота кадров : 46,875 кадров/сек (1024 spf)
Метод сжатия : С потерями
Размер потока : 72,1 Мбайт (2%)
Заголовок : original
Язык : English
Default : Нет
Forced : Нет
Текст
Идентификатор : 4
Формат : UTF-8
Идентификатор кодека : S_TEXT/UTF8
Идентификатор кодека/Информация : UTF-8 Plain Text
Продолжительность : 1 ч. 31 м.
Битрейт : 78 бит/сек
Count of elements : 1358
Размер потока : 52,4 Кбайт (0%)
Заголовок : subtitle eng
Язык : English
Default : Нет
Forced : Нет
Меню
00:00:00.000 : en:Opening Credits
00:11:07.000 : en:Family Secrets
00:19:19.000 : en:"Unbound Gratitude"
00:30:33.000 : en:Running For Public Office
00:40:09.000 : en:The Ring
00:51:58.000 : en:"Daniels Is A Dog"
00:59:43.000 : en:In The Slammer
01:09:37.000 : en:Undercover
01:19:23.000 : en:Evidence/The End

Скриншоты



_________________
Показать сообщения:    

Текущее время: Сегодня 15:19

Часовой пояс: GMT



Вы не можете начинать темы
Вы не можете отвечать на сообщения
Вы не можете редактировать свои сообщения
Вы не можете удалять свои сообщения
Вы не можете голосовать в опросах
Вы не можете прикреплять файлы к сообщениям
Вы не можете скачивать файлы