Важное объявление!
У Нас Все раздачи мультитрекерные, при нуле пиров в релизах, можете смело вставать на закачку!
 
Автор Сообщение

HUNTER

Стаж:
4 года 4 месяца
Сообщений:
56733

Репутация: 101

[+] [-]
Вне форума [Профиль] [ЛС]

Лохматое чудище / Monster Mutt
Страна: США
Жанр: фантастика, комедия, семейный
Год выпуска: 2011
Продолжительность: 01:28:04
Перевод: Одноголосый закадровый (Андрей Лагута)
Cубтитры: русские, английские, английские (SDH)
Оригинальная аудиодорожка: английский
Режиссер: Тодд Таккер / Todd Tucker
В ролях: Рианнон Ли Врин, Барт Джонсон, Билли Унгер, Зак Уорд, Брайан Степанек, Мелинда Стерлинг, Джульетт Ландау, Жаклин Пиньоль, Аластер Маккензи, Джон Кассир
Описание: Макс, обычный песик живущий в семье Тейлоров, но в один прекрасный день случается нечто... Корпорация "Энвигормакс" похищает бедную собачонку для эксперимента, чтобы испытать новый химический препарат, который может превратить обычное животное в безумного монстра.
Тип релиза: WEB-DL 720p
Контейнер: MKV
Видео: MPEG-4 AVC Video, 1280x720 / 1,78:1 (16:9) / ~4000 kbps / 23,976 fps
Аудио 1: Russian: AC3 2 ch, 48 kHz, 192 kbps
Аудио 2: English: AC3 6 ch, 48 kHz, 384 kbps
Формат субтитров: softsub (SRT)

MediaInfo

общееУникальный идентификатор : 196883443466854490093445418875268025790 (0x941E5F36FB0E177FA76AFDCB802ECDBE)Полное имя : D:\FILMS\Monster.Mutt.2011.720p.WEB-DL.mkvФормат : MatroskaВерсия формата : Version 4 / Version 2Размер файла : 2,95 ГбайтПродолжительность : 1 ч. 28 м.Общий поток : 4796 Кбит/секНазвание фильма : Monster Mutt (2011)Дата кодирования : UTC 2016-01-08 22:12:32Программа кодирования : mkvmerge v6.7.0 ('Back to the Ground') 32bit built on Jan 8 2014 15:03:17Библиотека кодирования : libebml v1.3.0 + libmatroska v1.4.1
ВидеоИдентификатор : 1Формат : AVCФормат/Информация : Advanced Video CodecПрофиль формата : High@L3.1Параметр CABAC формата : НетПараметр ReFrames формата : 2 кадраИдентификатор кодека : V_MPEG4/ISO/AVCПродолжительность : 1 ч. 28 м.Битрейт : 4125 Кбит/секШирина : 1280 пикселейВысота : 720 пикселейСоотношение сторон : 16:9Режим частоты кадров : ПостоянныйЧастота кадров : 23,976 кадра/секЦветовое пространство : YUVСубдискретизация насыщенности : 4:2:0Битовая глубина : 8 битТип развёртки : ПрогрессивнаяБит/(Пиксели*Кадры) : 0.187Размер потока : 2,54 Гбайт (86%)Заголовок : Monster.Mutt.2011.720p.WEB-DL H264Язык : EnglishDefault : ДаForced : НетОсновные цвета : BT.709Характеристики трансфера : BT.709Коэффициенты матрицы : BT.709
Аудио #1Идентификатор : 2Формат : AC-3Формат/Информация : Audio Coding 3Расширение режима : CM (complete main)Параметр Endianness формата : BigИдентификатор кодека : A_AC3Продолжительность : 1 ч. 28 м.Вид битрейта : ПостоянныйБитрейт : 192 Кбит/секКаналы : 2 каналаРасположение каналов : Front: L RЧастота : 48,0 КГцБитовая глубина : 16 битМетод сжатия : С потерямиРазмер потока : 121 Мбайт (4%)Заголовок : VOЯзык : RussianDefault : ДаForced : Нет
Аудио #2Идентификатор : 3Формат : AC-3Формат/Информация : Audio Coding 3Расширение режима : CM (complete main)Параметр Endianness формата : BigИдентификатор кодека : A_AC3Продолжительность : 1 ч. 28 м.Вид битрейта : ПостоянныйБитрейт : 384 Кбит/секКаналы : 6 каналовРасположение каналов : Front: L C R, Side: L R, LFEЧастота : 48,0 КГцБитовая глубина : 16 битМетод сжатия : С потерямиРазмер потока : 242 Мбайт (8%)Заголовок : AC3 5.1Язык : EnglishDefault : НетForced : Нет
Текст #1Идентификатор : 4Формат : UTF-8Идентификатор кодека : S_TEXT/UTF8Идентификатор кодека/Информация : UTF-8 Plain TextЗаголовок : RussianЯзык : RussianDefault : НетForced : Нет
Текст #2Идентификатор : 5Формат : UTF-8Идентификатор кодека : S_TEXT/UTF8Идентификатор кодека/Информация : UTF-8 Plain TextЗаголовок : EnglishЯзык : EnglishDefault : НетForced : Нет
Текст #3Идентификатор : 6Формат : UTF-8Идентификатор кодека : S_TEXT/UTF8Идентификатор кодека/Информация : UTF-8 Plain TextЗаголовок : English for the Hearing ImpairedЯзык : EnglishDefault : НетForced : Нет
Меню00:00:00.000 : en:Chapter 100:11:49.000 : en:Chapter 200:20:18.000 : en:Chapter 300:30:53.000 : en:Chapter 400:41:01.000 : en:Chapter 500:50:48.000 : en:Chapter 600:59:40.000 : en:Chapter 701:10:45.000 : en:Chapter 801:22:27.000 : en:Chapter 901:25:03.000 : en:Chapter 10

Скриншоты



_________________
Показать сообщения:    

Текущее время: Сегодня 04:38

Часовой пояс: GMT



Вы не можете начинать темы
Вы не можете отвечать на сообщения
Вы не можете редактировать свои сообщения
Вы не можете удалять свои сообщения
Вы не можете голосовать в опросах
Вы не можете прикреплять файлы к сообщениям
Вы не можете скачивать файлы