Важное объявление!
У Нас Все раздачи мультитрекерные, при нуле пиров в релизах, можете смело вставать на закачку!
 
Автор Сообщение

HUNTER

Стаж:
4 года 4 месяца
Сообщений:
56749

Репутация: 101

[+] [-]
Вне форума [Профиль] [ЛС]

Лоракс-The Lorax-
Год выпуска: 2012
Страна: США
Жанр: мультфильм, фэнтези, комедия, семейный
Продолжительность: 01:26:11-Перевод: Профессиональный дублированное |Лицензия| + |Оригинал|
Субтитры: русские, английские-Режиссер: Крис Рено, Кайл Балда-В ролях: Дэнни ДеВито, Эд Хелмс, Зак Эфрон, Тейлор Свифт, Бетти Уайт, Роб Риггл, Дженни Слейт, Назим Пэдрад, Джоэл Светов, Майкл Битти-Описание: Недалекое будущее. Стоит нажать на кнопку — и мир изменится по твоему желанию: прямо под окном вырастут горы, во дворе зашумит океан. Единственная неприятность — все вокруг сделано из пластика. Но для влюбленного нет преград. Одно желание прекрасной девушки — увидеть последнее живое дерево — и он пускается в путь.-Качество: BDRip 1080p-Формат: .mkv
Видео кодек: h.264
Аудио кодек: AC3
Видео: ИСПРАВЬ
Аудио 1: AC-3, 6 ch, 640 kbps - |Русский|
Аудио 2: AC-3, 6 ch, 640 kbps - |Английский|-

Доп. Информация

|| ||
-

Mediainfo

Код: copyText_writeLink('this.parentNode.parentNode.nextSibling.nextSibling'); General
Unique ID : 242307143221878016960882605638370778871 (0xB64AA8857F174410B2769EC2B6D8DEF7)
Complete name : Лоракс.2012.BDRip.1080p.Rus.Eng.mkv
Format : Matroska
Format version : Version 2
File size : 4.37 GiB
Duration : 1h 26mn
Overall bit rate : 7 265 Kbps
Movie name : Лоракс.2012
Encoded date : UTC 2012-08-14 10:53:50
Writing application : mkvmerge v5.7.0 ('The Whirlwind') built on Aug 7 2012 14:11:40
Writing library : libebml v1.2.3 + libmatroska v1.3.0
Video
ID : 1
Format : AVC
Format/Info : Advanced Video Codec
Format profile : [url=mailto:High@L4.1]High@L4.1[/url]
Format settings, CABAC : Yes
Format settings, ReFrames : 4 frames
Codec ID : V_MPEG4/ISO/AVC
Duration : 1h 26mn
Bit rate : 5 982 Kbps
Width : 1 920 pixels
Height : 1 040 pixels
Display aspect ratio : 1.85:1
Frame rate : 23.976 fps
Color space : YUV
Chroma subsampling : 4:2:0
Bit depth : 8 bits
Scan type : Progressive
Bits/(Pixel*Frame) : 0.125
Stream size : 3.52 GiB (80%)
Title : Rip by Boriy
Writing library : x264 core 125 r2208 d9d2288
Encoding settings : cabac=1 / ref=4 / deblock=1:0:0 / analyse=0x3:0x113 / me=umh / subme=10 / psy=1 / psy_rd=1.00:0.10 / mixed_ref=1 / me_range=32 / chroma_me=1 / trellis=2 / 8x8dct=1 / cqm=0 / deadzone=21,11 / fast_pskip=0 / chroma_qp_offset=-3 / threads=12 / lookahead_threads=2 / sliced_threads=0 / nr=0 / decimate=0 / interlaced=0 / bluray_compat=0 / constrained_intra=0 / bframes=5 / b_pyramid=2 / b_adapt=2 / b_bias=0 / direct=3 / weightb=1 / open_gop=0 / weightp=2 / keyint=240 / keyint_min=23 / scenecut=40 / intra_refresh=0 / rc_lookahead=60 / rc=2pass / mbtree=1 / bitrate=5982 / ratetol=1.0 / qcomp=0.60 / qpmin=0 / qpmax=69 / qpstep=4 / cplxblur=20.0 / qblur=0.5 / ip_ratio=1.40 / aq=1:1.00
Language : English
Default : Yes
Forced : No
Audio #1
ID : 2
Format : AC-3
Format/Info : Audio Coding 3
Mode extension : CM (complete main)
Format settings, Endianness : Big
Codec ID : A_AC3
Duration : 1h 26mn
Bit rate mode : Constant
Bit rate : 640 Kbps
Channel(s) : 6 channels
Channel positions : Front: L C R, Side: L R, LFE
Sampling rate : 48.0 KHz
Bit depth : 16 bits
Compression mode : Lossy
Stream size : 395 MiB (9%)
Title : Дубляж
Language : Russian
Default : Yes
Forced : No
Audio #2
ID : 3
Format : AC-3
Format/Info : Audio Coding 3
Mode extension : CM (complete main)
Format settings, Endianness : Big
Codec ID : A_AC3
Duration : 1h 26mn
Bit rate mode : Constant
Bit rate : 640 Kbps
Channel(s) : 6 channels
Channel positions : Front: L C R, Side: L R, LFE
Sampling rate : 48.0 KHz
Bit depth : 16 bits
Compression mode : Lossy
Stream size : 395 MiB (9%)
Title : Оригинал
Language : English
Default : No
Forced : No
Text #1
ID : 4
Format : UTF-8
Codec ID : S_TEXT/UTF8
Codec ID/Info : UTF-8 Plain Text
Language : Russian
Default : No
Forced : No
Text #2
ID : 5
Format : UTF-8
Codec ID : S_TEXT/UTF8
Codec ID/Info : UTF-8 Plain Text
Language : English
Default : No
Forced : No
Menu
00:00:00.000 : :Chapter 1
00:04:13.002 : :Chapter 2
00:06:38.481 : :Chapter 3
00:10:04.770 : :Chapter 4
00:13:56.126 : :Chapter 5
00:16:39.873 : :Chapter 6
00:21:30.414 : :Chapter 7
00:28:18.488 : :Chapter 8
00:32:49.175 : :Chapter 9
00:39:49.553 : :Chapter 10
00:42:26.418 : :Chapter 11
00:45:45.033 : :Chapter 12
00:51:21.578 : :Chapter 13
00:56:32.847 : :Chapter 14
00:59:07.835 : :Chapter 15
01:03:18.461 : :Chapter 16
01:07:13.821 : :Chapter 17
01:12:35.726 : :Chapter 18
01:16:05.102 : :Chapter 19
01:20:23.401 : :Chapter 20
01:26:11.666 : :Chapter 21
-

Скриншоты

Оформление by StrelOK

_________________
Показать сообщения:    

Текущее время: Сегодня 06:02

Часовой пояс: GMT



Вы не можете начинать темы
Вы не можете отвечать на сообщения
Вы не можете редактировать свои сообщения
Вы не можете удалять свои сообщения
Вы не можете голосовать в опросах
Вы не можете прикреплять файлы к сообщениям
Вы не можете скачивать файлы