Важное объявление!
У Нас Все раздачи мультитрекерные, при нуле пиров в релизах, можете смело вставать на закачку!
 
Автор Сообщение

HUNTER

Стаж:
4 года 4 месяца
Сообщений:
56755

Репутация: 101

[+] [-]
Вне форума [Профиль] [ЛС]

Лоракс / The Lorax3D-Год выпуска: 2012
Выпущено: США, Illumination Entertainment, Universal Pictures
Жанр: мультфильм
Продолжительность: 01:26:10
Перевод: Дублированный
Субтитры: Русский-Режисер:
Крис Рено, Кайл Балда-В ролях:
Дэнни ДеВито, Эд Хелмс, Зак Эфрон, Тейлор Свифт, Бетти Уайт, Роб Риггл, Дженни Слейт, Назим Пэдрад, Джоэл Светов, Майкл Битти, Дэйв Митчел, Демпси Паппион, Элмари Вендел, Дэнни Кукси, Стивен Тоболовски, Крис Рено, Джек Эйнджел, Боб Берген, Джон Циган, Деби Дерриберри, Билл Фармер, Джесс Харнелл, Шерри Линн, Дэнни Манн, Мона Маршалл, Микки Макгоун, Лорейн Ньюмен, Жан Рэбсон, Клейр НикольТитман, Джим Уорд, Флетчер Шеридан-О мультфильме:
В городе Всемнужвилль все растения - пластиковые, и лишь одна девушка мечтает увидеть хоть раз в жизни настоящее дерево. Для того, что бы исполнить ее желание, влюбленному в барышню Теду придется отправится в гости к отшельнику, знающему, что случилось с лесами и их стражем Лораксом...--Качество: BDRip (1080p)
Контейнер: MKV
Формат 3D: Вертикальная анаморфная стереопара.
Видео кодек: H.264
Аудио кодек: AC3
Видео: 1920x1080, 23.976fps, 17.9 Mbps, 0.359 bit/pixel
Аудио 1: Русский (AC3, 6 ch, 384 Кбит/с, 48.0 KHz)
Аудио 2: Украинский (AC3, 2 ch, 384 Кбит/с, 48.0 KHz)
Аудио 3: Английский (DTS, 6 ch, 1510 Кбит/с, 48.0 KHz)-

Mediainfo

Video
ID : 1
Format : AVC
Format/Info : Advanced Video Codec
Format profile : [url=mailto:High@L4.1]High@L4.1[/url]
Format settings, CABAC : Yes
Format settings, ReFrames : 2 frames
Codec ID : V_MPEG4/ISO/AVC
Duration : 1h 32mn
Bit rate : 17.9 Mbps
Width : 1 920 pixels
Height : 1 080 pixels
Display aspect ratio : 16:9
Frame rate : 23.976 fps
Color space : YUV
Chroma subsampling : 4:2:0
Bit depth : 8 bits
Scan type : Progressive
Bits/(Pixel*Frame) : 0.359
Stream size : 11.6 GiB (87%)
Writing library : x264 core
Default : Yes
Forced : No
Color primaries : BT.709-5, BT.1361, IEC 61966-2-4, SMPTE RP177
Transfer characteristics : BT.709-5, BT.1361
Matrix coefficients : BT.709-5, BT.1361, IEC 61966-2-4 709, SMPTE RP177
Audio #1
ID : 2
Format : AC-3
Format/Info : Audio Coding 3
Mode extension : CM (complete main)
Format settings, Endianness : Big
Codec ID : A_AC3
Duration : 1h 32mn
Bit rate mode : Constant
Bit rate : 384 Kbps
Channel(s) : 6 channels
Channel positions : Front: L C R, Side: L R, LFE
Sampling rate : 48.0 KHz
Bit depth : 16 bits
Compression mode : Lossy
Stream size : 255 MiB (2%)
Language : Russian
Default : Yes
Forced : No
Audio #2
ID : 3
Format : AC-3
Format/Info : Audio Coding 3
Mode extension : CM (complete main)
Format settings, Endianness : Big
Codec ID : A_AC3
Duration : 1h 32mn
Bit rate mode : Constant
Bit rate : 384 Kbps
Channel(s) : 2 channels
Channel positions : Front: L R
Sampling rate : 48.0 KHz
Bit depth : 16 bits
Compression mode : Lossy
Stream size : 255 MiB (2%)
Language : Ukrainian
Default : No
Forced : No
Audio #3
ID : 4
Format : DTS
Format/Info : Digital Theater Systems
Codec ID : A_DTS
Duration : 1h 32mn
Bit rate mode : Constant
Bit rate : 1 510 Kbps
Channel(s) : 6 channels
Channel positions : Front: L C R, Side: L R, LFE
Sampling rate : 48.0 KHz
Bit depth : 24 bits
Compression mode : Lossy
Stream size : 1 001 MiB (7%)
Language : English
Default : No
Forced : No

Скриншоты


_________________
Показать сообщения:    

Текущее время: Сегодня 12:59

Часовой пояс: GMT



Вы не можете начинать темы
Вы не можете отвечать на сообщения
Вы не можете редактировать свои сообщения
Вы не можете удалять свои сообщения
Вы не можете голосовать в опросах
Вы не можете прикреплять файлы к сообщениям
Вы не можете скачивать файлы