Важное объявление!
У Нас Все раздачи мультитрекерные, при нуле пиров в релизах, можете смело вставать на закачку!
 
Автор Сообщение

HUNTER

Стаж:
4 года 4 месяца
Сообщений:
56755

Репутация: 101

[+] [-]
Вне форума [Профиль] [ЛС]

Ловушка для родителей / Parent Trap, The
Страна: США
Студия: Walt Disney Pictures
Жанр: драма, мелодрама, комедия, приключения, семейный
Год выпуска: 1998
Продолжительность: 02:08:14
Перевод 1: Профессиональный (многоголосый закадровый) "СТС"
Перевод 2: Профессиональный (многоголосый закадровый) "Видеосервис"
Перевод 3: Профессиональный (многоголосый закадровый) (ORT)
Перевод 4: Авторский (одноголосый закадровый) Сергей Визгунов
Перевод 5: Авторский (одноголосый закадровый) Александр Кашкин (Первомайский)
Cубтитры: русские, английские
Оригинальная аудиодорожка: английский
Режиссер: Нэнси Майерс / Nancy Meyers
В ролях: Деннис Куэйд /Dennis Quaid/, Наташа Ричардсон /Natasha Richardson/, Лиза Энн Уолтер /Lisa Ann Walter/, Илэйн Хендрикс /Elaine Hendrix/, Саймон Кунц /Simon Kunz/, Ронни Стивенс /Ronnie Stevens/, Полли Холлидэй /Polly Holliday/, Линдсэй Лохан /Lindsay Lohan/
Описание: В летнем лагере встречаются две девочки. Одна живет с папой (обаятельнейший Деннис Куэйд) в Калифорнии, а другая - с мамой (Наташа Ричардсон) в Лондоне. Девчонки становятся подругами, а потом выясняется, что они сестры-близняшки, а их родители развелись много лет назад. Сестры меняются местами, чтобы воссоединить папу и маму...
Очень качественная, добрая и милая комедия идеально походит для семейного просмотра. (Иванов М.)
Один из любимых фильмов детства
Помню, когда я был маленьким, смотрел этот фильм вместе с семьей. И мы были просто очарованы игрой Дэнниса Куэйда, Наташи Хенстридж и, конечно же, несравненной Линдси Лохан. Я просто не могу представить на месте этих замечательных актеров кого-то другого, потому что то что они сумели показать, было выше всяких похвал. Этот не просто фильм, а фильм-сказка. Когда смотришь на их лица, то начинаешь сопереживать их героям, и на минуту тебе кажется, что ты находишься там с ними. Также хочется поблагодарить сценаристов и режиссера фильма Нэнси Майерса.
И немного о Линдси. Очень жаль, что в сегодняшнее время она угробила свою карьеру (и не нам конечно же судить), но, когда я пересматриваю этот фильм, то понимаю, что её актерская карьера могла взлететь и намного выше. Ведь девочка очень красивая и обладает актерским талантом. Но я надеюсь, что она пройдет через всё то плохое, что ей пришлось преодолеть, ведь человек заслуживает второго шанса. Замечательная семейная картина. 10 из 10
--------------------------------------------------
Оператор: Дин Канди /Dean Cundey/
Сценарист: Дэвид Свифт /David Swift/, Нэнси Мейерс /Nancy Meyers/, Чарлз Шайер /Charles Shyer/
Продюсер: Чарлз Шайер /Charles Shyer/
Монтажер: Стивен Э. Роттер /Stephen A. Rotter/
Композитор: Алан Силвестри /Alan Silvestri/
Художник: Дин Тавуларис /Dean Tavoularis/
Костюмы: Пенни Роуз /Penny Rose/
Кастинг: Айлин Старджер /Ilene Starger/
--------------------------------------------------
КИНОПОИСК. RU
РЕЙТИНГ 7.394 оценки: 24 290
6,3/10 from 67 034 users
--------------------------------------------------
Доп. информация: Видеоряд >>> The Parent Trap 1998 720p WEB-DL H264-HDB
Авторские переводы и MVO отсюда >>> DVD9 + DVD9 + DVDRip + DVDRip - Cпасибо AlsKnight, Red_Light_3, Ivan Dobriy и dvdbox
--------------------------------------------------
СЭМПЛ
--------------------------------------------------
Примечание: Скорость маленькая 50 kb/c, но раздаю круглосуточно.
--------------------------------------------------
Тип релиза: WEB-DL 720p
Контейнер: MKV
Видео: H.264; 1280x692; 23.976 fps; ~ 3987 Kbps; 0.188 Bits/Pixel
Аудио 1: Russian - 48 kHz, AC3, 2/0 Front: L R, ~ 192 kbps - MVO -"СТС"
Аудио 2: Russian - 48 kHz, AC3, 2/0 Front: L R, ~ 192 kbps - MVO -"Видеосервис"
Аудио 3: Russian - 48 kHz, AC3, 2/0 Front: L R, ~ 192 kbps - MVO - (ORT)
Аудио 4: Russian - 48 kHz, AC3, Front: L C R, Side: L R, LFE, ~ 448 kbps - Сергей Визгунов
Аудио 5: Russian - 48 kHz, AC3, 2/0 Front: L R, ~ 192 kbps - Александр Кашкин
Аудио 6: English - 48 kHz, AC3, Front: L C R, Side: L R, LFE, ~ 448 kbps - Original
Формат субтитров: Все (*UTF-8)

MediaInfo

General
Complete name : F:\EXCLUZIVE=19\ЛОВУШКА ДЛЯ РОДИТЕЛЕЙ=PARENT TRAP, THE 1998\PARENT TRAP, THE 1998\The.Parent.Trap.1998.720p.WEB-DL.H264-HDB.mkv
Format : Matroska
File size : 5.16 GiB
Duration : 2h 8mn
Overall bit rate : 5 766 Kbps
Encoded date : UTC 2014-12-12 13:15:40
Writing application : mkvmerge v3.3.0 ('Language') built on Mar 24 2010 14:59:24
Writing library : libebml v0.8.0 + libmatroska v0.9.0
Video
ID : 1
Format : AVC
Format/Info : Advanced Video Codec
Format profile : High@L3.1
Format settings, CABAC : No
Format settings, ReFrames : 2 frames
Muxing mode : Container profile=Unknown@3.1
Codec ID : V_MPEG4/ISO/AVC
Duration : 2h 8mn
Bit rate : 3 987 Kbps
Width : 1 280 pixels
Height : 692 pixels
Display aspect ratio : 1.850
Frame rate : 23.976 fps
Color space : YUV
Chroma subsampling : 4:2:0
Bit depth : 8 bits
Scan type : Progressive
Bits/(Pixel*Frame) : 0.188
Stream size : 3.57 GiB (69%)
Title : The.Parent.Trap.1998
Language : English
Color primaries : BT.709-5, BT.1361, IEC 61966-2-4, SMPTE RP177
Transfer characteristics : BT.709-5, BT.1361
Matrix coefficients : BT.709-5, BT.1361, IEC 61966-2-4 709, SMPTE RP177
Audio #1
ID : 2
Format : AC-3
Format/Info : Audio Coding 3
Mode extension : CM (complete main)
Codec ID : A_AC3
Duration : 2h 8mn
Bit rate mode : Constant
Bit rate : 192 Kbps
Channel(s) : 2 channels
Channel positions : Front: L R
Sampling rate : 48.0 KHz
Stream size : 176 MiB (3%)
Title : MVO-CTC @ AC3 2 ch. @ 192 kbps
Language : Russian
Audio #2
ID : 3
Format : AC-3
Format/Info : Audio Coding 3
Mode extension : CM (complete main)
Codec ID : A_AC3
Duration : 2h 8mn
Bit rate mode : Constant
Bit rate : 192 Kbps
Channel(s) : 2 channels
Channel positions : Front: L R
Sampling rate : 48.0 KHz
Stream size : 176 MiB (3%)
Title : MVO-Видеосервис @ AC3 2 ch. @ 192 kbps
Language : Russian
Audio #3
ID : 4
Format : AC-3
Format/Info : Audio Coding 3
Mode extension : CM (complete main)
Codec ID : A_AC3
Duration : 2h 8mn
Bit rate mode : Constant
Bit rate : 192 Kbps
Channel(s) : 2 channels
Channel positions : Front: L R
Sampling rate : 48.0 KHz
Stream size : 176 MiB (3%)
Title : MVO-ORT @ AC3 2 ch. @ 192 kbps
Language : Russian
Audio #4
ID : 5
Format : AC-3
Format/Info : Audio Coding 3
Mode extension : CM (complete main)
Codec ID : A_AC3
Duration : 2h 8mn
Bit rate mode : Constant
Bit rate : 448 Kbps
Channel(s) : 6 channels
Channel positions : Front: L C R, Side: L R, LFE
Sampling rate : 48.0 KHz
Stream size : 411 MiB (8%)
Title : AVO Визгунов @ AC3 6 ch. @ 448 kbps
Language : Russian
Audio #5
ID : 6
Format : AC-3
Format/Info : Audio Coding 3
Mode extension : CM (complete main)
Codec ID : A_AC3
Duration : 2h 8mn
Bit rate mode : Constant
Bit rate : 192 Kbps
Channel(s) : 2 channels
Channel positions : Front: L R
Sampling rate : 48.0 KHz
Stream size : 176 MiB (3%)
Title : AVO Кашкин @ AC3 2 ch. @ 192 kbps
Language : Russian
Audio #6
ID : 7
Format : AC-3
Format/Info : Audio Coding 3
Mode extension : CM (complete main)
Codec ID : A_AC3
Duration : 2h 8mn
Bit rate mode : Constant
Bit rate : 448 Kbps
Channel(s) : 6 channels
Channel positions : Front: L C R, Side: L R, LFE
Sampling rate : 48.0 KHz
Stream size : 411 MiB (8%)
Title : Original @ AC3 6 ch. @ 448 kbps
Language : English
Text #1
ID : 8
Format : UTF-8
Codec ID : S_TEXT/UTF8
Codec ID/Info : UTF-8 Plain Text
Title : (* UTF-8)
Language : Russian
Text #2
ID : 9
Format : UTF-8
Codec ID : S_TEXT/UTF8
Codec ID/Info : UTF-8 Plain Text
Title : (* UTF-8)The Parent Trap (1998) (HD)
Language : English
Menu
00:00:00.000 : en:1
00:03:29.000 : en:2
00:12:07.000 : en:3
00:21:25.000 : en:4
00:28:03.000 : en:5
00:37:24.000 : en:6
00:45:08.000 : en:7
01:07:38.000 : en:8
01:18:34.000 : en:9
01:23:09.000 : en:10
01:35:42.000 : en:11
01:44:49.000 : en:12
01:54:58.000 : en:13
02:02:24.000 : en:14

Скриншоты

, ,
, ,
, ,
Мои раздачи фильмов в Авторском переводе

_________________
Показать сообщения:    

Текущее время: Сегодня 13:46

Часовой пояс: GMT



Вы не можете начинать темы
Вы не можете отвечать на сообщения
Вы не можете редактировать свои сообщения
Вы не можете удалять свои сообщения
Вы не можете голосовать в опросах
Вы не можете прикреплять файлы к сообщениям
Вы не можете скачивать файлы