Важное объявление!
У Нас Все раздачи мультитрекерные, при нуле пиров в релизах, можете смело вставать на закачку!
 
Автор Сообщение

HUNTER

Стаж:
4 года 4 месяца
Сообщений:
56772

Репутация: 101

[+] [-]
Вне форума [Профиль] [ЛС]

Лицо любви / The Face of Love
Страна: США
Жанр: драма, мелодрама
Год выпуска: 2013
Продолжительность: 01:32:13-Перевод: Профессиональный (многоголосый закадровый) Первый канал Эфир от 09.08.2016г
Cубтитры: русские, английские
Оригинальная аудиодорожка: есть (Eng)-Режиссер: Арье Позин / Arie Posin-В ролях: Эд Харрис, Аннетт Бенинг, [url=viewtopic.php?t=2179336]Робин Уильямс[/url], Джесс Вейкслер, Линда Пак, Джефф Парис, Эми Бреннеман, Клайд Кусацу, Эли Варгас и др.-Описание: Спустя пять лет после смерти ее любимого мужа Гаррета, Никки встречает человека, который кажется его точной копией. Мало того, что встреченный героиней незнакомец наделен таким же лицом и поразительно голубыми глазами, как у ее супруга, он также столь же добр, как покойный Гаррет, имеет превосходное чувство юмора и страсть к искусству. И все же он чужой.-Благодарности:
dean10 - звук MVO
*Sergeant_am* - сведение
-Сэмпл: http://multi-up.com/1114158-Качество видео: BDRip 720p
Формат видео: MKV-Видео: MPEG-4 AVC 1280x694 1,85:1 23,976 fps 5005 Кбит/с
Аудио 1: 48 kHz, AC3 Dolby Digital, 2/0 (L,R) ch, ~192.00 kbps avg (MVO)
Аудио 2: 48 kHz, AC3 Dolby Digital, 3/2 (L,C,R,l,r) + LFE ch, ~448 kbps (Eng)
Формат субтитров: softsub (SRT)

Отчёт MediaInfo

Общее
Уникальный идентификатор : 196814966862844526070487563187777323982 (0x94112F0EBA3B9421BE639E4F831E43CE)
Полное имя : D:\FILES\Лицо любви (2013) 720p MVO.mkv
Формат : Matroska
Версия формата : Version 2
Размер файла : 3,71 Гбайт
Продолжительность : 1 ч. 32 м.
Общий поток : 5756 Кбит/сек
Дата кодирования : UTC 2016-08-17 14:58:36
Программа кодирования : mkvmerge v4.0.0 ('The Stars were mine') сборка от Jun 6 2010 16:18:42
Библиотека кодирования : libebml v1.0.0 + libmatroska v1.0.0
Видео
Идентификатор : 1
Формат : AVC
Формат/Информация : Advanced Video Codec
Профиль формата : High@L4.1
Параметр CABAC формата : Да
Параметр ReFrames формата : 9 кадров
Идентификатор кодека : V_MPEG4/ISO/AVC
Продолжительность : 1 ч. 32 м.
Битрейт : 5001 Кбит/сек
Ширина : 1280 пикселей
Высота : 694 пикселя
Соотношение сторон : 1,85:1
Режим частоты кадров : Постоянный
Частота кадров : 23,976 (24000/1001) кадра/сек
Цветовое пространство : YUV
Субдискретизация насыщенности : 4:2:0
Битовая глубина : 8 бит
Тип развёртки : Прогрессивная
Бит/(Пиксели*Кадры) : 0.235
Размер потока : 3,22 Гбайт (87%)
Библиотека кодирования : x264 core 142 r2409+42 04be48a tMod [8-bit@all X86_64]
Настройки программы : cabac=1 / ref=9 / deblock=1:-3:-3 / analyse=0x3:0x133 / me=tesa / subme=10 / psy=1 / fade_compensate=0.00 / psy_rd=0.90:0.00 / mixed_ref=1 / me_range=32 / chroma_me=1 / trellis=2 / 8x8dct=1 / cqm=0 / deadzone=21,11 / fast_pskip=0 / chroma_qp_offset=-2 / threads=12 / lookahead_threads=2 / sliced_threads=0 / nr=0 / decimate=1 / interlaced=0 / bluray_compat=0 / constrained_intra=0 / fgo=0 / bframes=7 / b_pyramid=2 / b_adapt=2 / b_bias=0 / direct=3 / weightb=1 / open_gop=0 / weightp=2 / keyint=241 / keyint_min=23 / scenecut=40 / intra_refresh=0 / rc_lookahead=60 / rc=crf / mbtree=0 / crf=16.3000 / qcomp=0.60 / qpmin=0:0:0 / qpmax=69:69:69 / qpstep=4 / vbv_maxrate=50000 / vbv_bufsize=62500 / crf_max=0.0 / nal_hrd=none / filler=0 / ip_ratio=1.40 / pb_ratio=1.30 / aq=4:0.90 / aq-sensitivity=10.00 / aq-factor=1.00:1.00:1.00 / aq2=0 / aq3=0 / zones=125600,132652,q=26
Язык : English
Default : Нет
Forced : Да
Аудио #1
Идентификатор : 2
Формат : AC-3
Формат/Информация : Audio Coding 3
Расширение режима : CM (complete main)
Параметр Endianness формата : Big
Идентификатор кодека : A_AC3
Продолжительность : 1 ч. 32 м.
Вид битрейта : Постоянный
Битрейт : 192 Кбит/сек
Каналы : 2 канала
Расположение каналов : Front: L R
Частота : 48,0 КГц
Частота кадров : 31,250 кадров/сек (1536 spf)
Метод сжатия : С потерями
Размер потока : 127 Мбайт (3%)
Заголовок : Профессиональный многоголосый. Телеканал "Первый"
Язык : Russian
Default : Да
Forced : Нет
Аудио #2
Идентификатор : 3
Формат : AC-3
Формат/Информация : Audio Coding 3
Расширение режима : CM (complete main)
Параметр Endianness формата : Big
Идентификатор кодека : A_AC3
Продолжительность : 1 ч. 32 м.
Вид битрейта : Постоянный
Битрейт : 448 Кбит/сек
Каналы : 6 каналов
Расположение каналов : Front: L C R, Side: L R, LFE
Частота : 48,0 КГц
Частота кадров : 31,250 кадров/сек (1536 spf)
Метод сжатия : С потерями
Размер потока : 295 Мбайт (8%)
Язык : English
Default : Нет
Forced : Нет
Текст #1
Идентификатор : 4
Формат : UTF-8
Идентификатор кодека : S_TEXT/UTF8
Идентификатор кодека/Информация : UTF-8 Plain Text
Язык : Russian
Default : Нет
Forced : Нет
Текст #2
Идентификатор : 5
Формат : UTF-8
Идентификатор кодека : S_TEXT/UTF8
Идентификатор кодека/Информация : UTF-8 Plain Text
Язык : English
Default : Нет
Forced : Нет
Меню
00:00:00.000 : :00:00:00.000
00:05:34.459 : :00:05:34.459
00:11:25.393 : :00:11:25.393
00:17:09.904 : :00:17:09.904
00:23:00.921 : :00:23:00.921
00:27:44.162 : :00:27:44.162
00:34:23.770 : :00:34:23.770
00:40:12.702 : :00:40:12.702
00:45:59.548 : :00:45:59.548
00:51:29.628 : :00:51:29.628
00:58:28.797 : :00:58:28.797
01:03:22.215 : :01:03:22.215
01:09:37.340 : :01:09:37.340
01:14:53.906 : :01:14:53.906
01:22:50.507 : :01:22:50.507
01:27:06.847 : :01:27:06.847

Скриншоты


_________________
Показать сообщения:    

Текущее время: Сегодня 07:17

Часовой пояс: GMT



Вы не можете начинать темы
Вы не можете отвечать на сообщения
Вы не можете редактировать свои сообщения
Вы не можете удалять свои сообщения
Вы не можете голосовать в опросах
Вы не можете прикреплять файлы к сообщениям
Вы не можете скачивать файлы