Важное объявление!
У Нас Все раздачи мультитрекерные, при нуле пиров в релизах, можете смело вставать на закачку!
 
Автор Сообщение

HUNTER

Стаж:
4 года 4 месяца
Сообщений:
56734

Репутация: 101

[+] [-]
Вне форума [Профиль] [ЛС]

Лицо любви / The Face of Love
Страна: США
Жанр: драма, мелодрама
Год выпуска: 2013
Продолжительность: 01:32:13-Перевод: Профессиональный (многоголосый закадровый) Первый канал Эфир от 09.08.2016г
Cубтитры: русские, английские
Оригинальная аудиодорожка: английская-Режиссер: Арье Позин / Arie Posin-В ролях: Эд Харрис, Аннетт Бенинг, [url=viewtopic.php?t=2179336]Робин Уильямс[/url], Джесс Вейкслер, Линда Пак, Джефф Парис, Эми Бреннеман, Клайд Кусацу, Эли Варгас и др.-Описание: Спустя пять лет после смерти ее любимого мужа Гаррета, Никки встречает человека, который кажется его точной копией. Мало того, что встреченный героиней незнакомец наделен таким же лицом и поразительно голубыми глазами, как у ее супруга, он также столь же добр, как покойный Гаррет, имеет превосходное чувство юмора и страсть к искусству. И все же он чужой.-Благодарности:
dean10 - звук MVO
*Sergeant_am* - сведение
-Сэмпл: http://multi-up.com/1114159-Качество видео: BDRemux 1080p
Формат видео: MKV-Видео: MPEG-4 AVC 1920x1080 16:9 23,976 fps, 24027 kbps
Аудио 1: 48 kHz, AC3 Dolby Digital, 2/0 (L,R) ch, ~192.00 kbps avg (MVO)
Аудио 2: 48 kHz, AC3 Dolby Digital, 3/2 (L,C,R,l,r) + LFE ch, ~448 kbps (Eng)
Формат субтитров: softsub (SRT)

Отчёт MediaInfo

Общее
Уникальный идентификатор : 202374102170439351158030850177660591551 (0x983FD596E74507AC977781C2ECCF9DBF)
Полное имя : D:\FILES\Лицо любви (2013) MVO.mkv
Формат : Matroska
Версия формата : Version 2
Размер файла : 15,9 Гбайт
Продолжительность : 1 ч. 32 м.
Режим общего битрейта : Переменный
Общий поток : 24,6 Мбит/сек
Дата кодирования : UTC 2016-08-17 15:04:56
Программа кодирования : mkvmerge v4.0.0 ('The Stars were mine') сборка от Jun 6 2010 16:18:42
Библиотека кодирования : libebml v1.0.0 + libmatroska v1.0.0
Видео
Идентификатор : 1
Формат : AVC
Формат/Информация : Advanced Video Codec
Профиль формата : High@L4.1
Параметр CABAC формата : Да
Параметр ReFrames формата : 4 кадра
Идентификатор кодека : V_MPEG4/ISO/AVC
Продолжительность : 1 ч. 32 м.
Вид битрейта : Переменный
Битрейт : 23,5 Мбит/сек
Максимальный битрейт : 35,0 Мбит/сек
Ширина : 1920 пикселей
Высота : 1080 пикселей
Соотношение сторон : 16:9
Режим частоты кадров : Постоянный
Частота кадров : 23,976 (24000/1001) кадра/сек
Стандарт вещания : NTSC
Цветовое пространство : YUV
Субдискретизация насыщенности : 4:2:0
Битовая глубина : 8 бит
Тип развёртки : Прогрессивная
Бит/(Пиксели*Кадры) : 0.473
Размер потока : 15,1 Гбайт (95%)
Язык : English
Default : Нет
Forced : Нет
Цветовой диапазон : Limited
Основные цвета : BT.709
Характеристики трансфера : BT.709
Коэффициенты матрицы : BT.709
Аудио #1
Идентификатор : 2
Формат : AC-3
Формат/Информация : Audio Coding 3
Расширение режима : CM (complete main)
Параметр Endianness формата : Big
Идентификатор кодека : A_AC3
Продолжительность : 1 ч. 32 м.
Вид битрейта : Постоянный
Битрейт : 192 Кбит/сек
Каналы : 2 канала
Расположение каналов : Front: L R
Частота : 48,0 КГц
Частота кадров : 31,250 кадров/сек (1536 spf)
Метод сжатия : С потерями
Размер потока : 127 Мбайт (1%)
Заголовок : Профессиональный многоголосый. Телеканал "Первый"
Язык : Russian
Default : Да
Forced : Нет
Аудио #2
Идентификатор : 3
Формат : AC-3
Формат/Информация : Audio Coding 3
Расширение режима : CM (complete main)
Параметр Endianness формата : Big
Идентификатор кодека : A_AC3
Продолжительность : 1 ч. 32 м.
Вид битрейта : Постоянный
Битрейт : 448 Кбит/сек
Каналы : 6 каналов
Расположение каналов : Front: L C R, Side: L R, LFE
Частота : 48,0 КГц
Частота кадров : 31,250 кадров/сек (1536 spf)
Метод сжатия : С потерями
Размер потока : 295 Мбайт (2%)
Язык : English
Default : Нет
Forced : Нет
Текст #1
Идентификатор : 4
Формат : UTF-8
Идентификатор кодека : S_TEXT/UTF8
Идентификатор кодека/Информация : UTF-8 Plain Text
Язык : Russian
Default : Нет
Forced : Нет
Текст #2
Идентификатор : 5
Формат : UTF-8
Идентификатор кодека : S_TEXT/UTF8
Идентификатор кодека/Информация : UTF-8 Plain Text
Язык : English
Default : Нет
Forced : Нет

Скриншоты


_________________
Показать сообщения:    

Текущее время: Сегодня 15:25

Часовой пояс: GMT



Вы не можете начинать темы
Вы не можете отвечать на сообщения
Вы не можете редактировать свои сообщения
Вы не можете удалять свои сообщения
Вы не можете голосовать в опросах
Вы не можете прикреплять файлы к сообщениям
Вы не можете скачивать файлы