Важное объявление!
У Нас Все раздачи мультитрекерные, при нуле пиров в релизах, можете смело вставать на закачку!
 
Автор Сообщение

HUNTER

Стаж:
4 года 4 месяца
Сообщений:
56848

Репутация: 101

[+] [-]
Вне форума [Профиль] [ЛС]

Лисенок Вук / Vuk / Vuk: The Little Fox
полная версия-
Страна: Венгрия
Жанр: приключения, семейный
Год выпуска: 1981 г.
Продолжительность: 01:13:15
Перевод 1: Профессиональный (дублированный) - Главная редакция кинопрограмм ЦТ | 1984
Перевод 2: Профессиональный (дублированный) - Киностудия им. Горького | 1982
Русские субтитры: нет-Режиссёр: Аттила Даргаи / Attila Dargay- | Релиз: -Описание: Этот мультипликационный фильм, созданный по мотивам одноименной сказки И. Фекете, рассказывает о приключениях маленького озорного лисенка Вука. Много пережил этот хвастунишка, прежде чем превратился в сильного, умного лиса, сумевшего перехитрить даже известного охотника Гладкокожего.-Благодарности:
- Большое спасибо Maks1mKA за VHS кассету с советской телевизионной версией мультфильма и bora86bora за её оцифровку.
- За DVD с переводом Киностудии им. Горького спасибо ClashClash@RDA.

Доп. информация:
- Исходник видео - венгерское DVD издание.
- Обе советские версии мультфильма - и кинотеатральная и телевизионная - имеют отличия в хронометраже и монтаже относительно оригинальной полнометражной версии. Вследствие этого и в первую и во вторую дорожку пришлось делать вставки другой версии дубляжа.
- Работа со звуком и видео - xfiles.
-Семпл: скачать-Качество: DVDRip-AVC
Формат: MKV
Видео: 704x576 (4:3) @ 768x576, 25.000 fps, AVC, ~3623 Kbps, 0.357 bits/pixel
Аудио #1: Русский, 48.0 KHz, AC3, 1 ch, 192 Kbps - Дубляж | Главная редакция кинопрограмм ЦТ | 1984
Аудио #2: Русский, 48.0 KHz, AC3, 1 ch, 192 Kbps - Дубляж | Киностудия им. Горького | 1982
Аудио #3: Hungarian, 48.0 KHz, AC3, 6 ch, 384 Kbps
Аудио #4: English, 48.0 KHz, AC3, 2 ch, 192 Kbps

MediaInfo

x264 log
x264 [info]: 704x576p 12:11 @ 25/1 fps (cfr)x264 [info]: using SAR=12/11x264 [info]: using cpu capabilities: MMX2 SSE2Fast SSSE3 SSE4.2 AVXx264 [info]: profile High, level 4.0x264 [info]: cabac=1 ref=16 deblock=1:-2:-1 analyse=0x3:0x133 me=umh subme=11 psy=1 fade_compensate=0.00 psy_rd=1.00:0.00 mixed_ref=1 me_range=48 chroma_me=1 trellis=2 8x8dct=1 cqm=0 deadzone=21,11 fast_pskip=0 chroma_qp_offset=-2 threads=12 lookahead_threads=3 sliced_threads=0 nr=0 decimate=1 interlaced=0 bluray_compat=0 constrained_intra=0 fgo=0 bframes=14 b_pyramid=2 b_adapt=2 b_bias=0 direct=3 weightb=1 open_gop=0 weightp=2 keyint=250 keyint_min=25 scenecut=40 intra_refresh=0 rc=crf mbtree=0 crf=19.5200 qcomp=0.60 qpmin=0 qpmax=69 qpstep=4 ip_ratio=1.40 pb_ratio=1.30 aq=3:0.90x264 [info]: frame I:794 Avg QP:21.55 size: 64506x264 [info]: frame P:26278 Avg QP:22.79 size: 33099x264 [info]: frame B:82818 Avg QP:24.63 size: 13490x264 [info]: consecutive B-frames: 2.4% 1.8% 11.8% 34.9% 25.1% 15.7% 2.9% 1.0% 3.7% 0.2% 0.1% 0.2% 0.0% 0.1% 0.2%x264 [info]: mb I I16..4: 1.2% 84.5% 14.3%x264 [info]: mb P I16..4: 0.7% 17.8% 1.3% P16..4: 29.5% 34.5% 14.9% 1.0% 0.1% skip: 0.3%x264 [info]: mb B I16..4: 0.2% 2.3% 0.2% B16..8: 39.5% 20.9% 4.1% direct:17.6% skip:15.2% L0:38.9% L1:40.3% BI:20.9%x264 [info]: 8x8 transform intra:88.4% inter:70.5%x264 [info]: direct mvs spatial:100.0% temporal:0.0%x264 [info]: coded y,uvDC,uvAC intra: 91.1% 97.5% 89.4% inter: 45.5% 69.8% 43.5%x264 [info]: i16 v,h,dc,p: 56% 12% 9% 23%x264 [info]: i8 v,h,dc,ddl,ddr,vr,hd,vl,hu: 6% 6% 7% 12% 15% 13% 13% 13% 14%x264 [info]: i4 v,h,dc,ddl,ddr,vr,hd,vl,hu: 10% 5% 5% 10% 15% 14% 13% 14% 14%x264 [info]: i8c dc,h,v,p: 46% 18% 18% 17%x264 [info]: Weighted P-Frames: Y:53.5% UV:42.9%x264 [info]: ref P L0: 34.7% 10.6% 12.8% 8.5% 5.6% 5.1% 4.3% 2.9% 2.5% 2.4% 2.1% 2.0% 1.8% 1.7% 1.6% 1.4%x264 [info]: ref B L0: 75.8% 9.9% 3.1% 2.2% 1.6% 1.6% 1.1% 0.9% 0.7% 0.7% 0.6% 0.6% 0.5% 0.4% 0.3%x264 [info]: ref B L1: 96.7% 3.3%x264 [info]: kb/s:3709.55x264 [info]: encoded 109890 frames, 7.31 fps, 3709.55 kb/s, duration 4:10:28.03
GeneralUnique ID : 184333696117352156466940760079902541826 (0x8AAD60E61C2304169D69AEDCB2FD8802)Complete name : E:\VIDEO_Mult\Vuk.1981.DVDRip.x264-rutracker.xfiles.mkvFormat : MatroskaFormat version : Version 4 / Version 2File size : 2.39 GiBDuration : 1h 13mnOverall bit rate : 4 672 KbpsMovie name : Vuk.1981.DVDRip.x264-rutracker.xfilesEncoded date : UTC 2014-07-21 15:02:26Writing application : mkvmerge v7.0.0 ('Where We Going') 64bit built on Jun 9 2014 15:16:27Writing library : libebml v1.3.0 + libmatroska v1.4.1
VideoID : 1Format : AVCFormat/Info : Advanced Video CodecFormat profile : High@L4.0Format settings, CABAC : YesFormat settings, ReFrames : 16 framesCodec ID : V_MPEG4/ISO/AVCDuration : 1h 13mnBit rate : 3 623 KbpsWidth : 704 pixelsHeight : 576 pixelsDisplay aspect ratio : 4:3Frame rate mode : ConstantFrame rate : 25.000 fpsStandard : PALColor space : YUVChroma subsampling : 4:2:0Bit depth : 8 bitsScan type : ProgressiveBits/(Pixel*Frame) : 0.357Stream size : 1.85 GiB (77%)Title : http://rutracker.org/forum/viewtopic.php?t=4786249Writing library : x264 core 142 r2431kMod ac76440Encoding settings : cabac=1 / ref=16 / deblock=1:-2:-1 / analyse=0x3:0x133 / me=umh / subme=11 / psy=1 /fade_compensate=0.00 / psy_rd=1.00:0.00 / mixed_ref=1 / me_range=48 / chroma_me=1 / trellis=2 / 8x8dct=1 / cqm=0 /deadzone=21,11 / fast_pskip=0 / chroma_qp_offset=-2 / threads=12 / lookahead_threads=3 / sliced_threads=0 / nr=0 /decimate=1 / interlaced=0 / bluray_compat=0 / constrained_intra=0 / fgo=0 / bframes=14 / b_pyramid=2 / b_adapt=2 /b_bias=0 / direct=3 / weightb=1 / open_gop=0 / weightp=2 / keyint=250 / keyint_min=25 / scenecut=40 / intra_refresh=0 /rc=crf / mbtree=0 / crf=19.5200 / qcomp=0.60 / qpmin=0 / qpmax=69 / qpstep=4 / ip_ratio=1.40 / pb_ratio=1.30 / aq=3:0.90Language : HungarianDefault : YesForced : NoColor primaries : BT.601 PALTransfer characteristics : BT.470 System B, BT.470 System GMatrix coefficients : BT.601
Audio #1ID : 2Format : AC-3Format/Info : Audio Coding 3Mode extension : CM (complete main)Format settings, Endianness : BigCodec ID : A_AC3Duration : 1h 13mnBit rate mode : ConstantBit rate : 192 KbpsChannel(s) : 1 channelChannel positions : Front: CSampling rate : 48.0 KHzBit depth : 16 bitsCompression mode : LossyStream size : 101 MiB (4%)Title : Дубляж | Главная редакция кинопрограмм ЦТ | 1984Language : RussianDefault : YesForced : No
Audio #2ID : 3Format : AC-3Format/Info : Audio Coding 3Mode extension : CM (complete main)Format settings, Endianness : BigCodec ID : A_AC3Duration : 1h 13mnBit rate mode : ConstantBit rate : 192 KbpsChannel(s) : 1 channelChannel positions : Front: CSampling rate : 48.0 KHzBit depth : 16 bitsCompression mode : LossyStream size : 101 MiB (4%)Title : Дубляж | Киностудия им. Горького | 1982Language : RussianDefault : NoForced : No
Audio #3ID : 4Format : AC-3Format/Info : Audio Coding 3Mode extension : CM (complete main)Format settings, Endianness : BigCodec ID : A_AC3Duration : 1h 13mnBit rate mode : ConstantBit rate : 384 KbpsChannel(s) : 6 channelsChannel positions : Front: L C R, Side: L R, LFESampling rate : 48.0 KHzBit depth : 16 bitsCompression mode : LossyStream size : 201 MiB (8%)Language : HungarianDefault : NoForced : No
Audio #4ID : 5Format : AC-3Format/Info : Audio Coding 3Mode extension : CM (complete main)Format settings, Endianness : BigCodec ID : A_AC3Duration : 1h 13mnBit rate mode : ConstantBit rate : 192 KbpsChannel(s) : 2 channelsChannel positions : Front: L RSampling rate : 48.0 KHzBit depth : 16 bitsCompression mode : LossyStream size : 101 MiB (4%)Language : EnglishDefault : NoForced : No
Menu00:00:00.000 : :00:00:0000:05:04.200 : :00:05:0400:14:44.000 : :00:14:4400:23:04.240 : :00:23:0400:32:58.080 : :00:32:5800:36:56.240 : :00:36:5600:48:25.760 : :00:48:2500:52:06.240 : :00:52:0600:58:56.520 : :00:58:5601:10:57.240 : :01:10:57

_________________
Показать сообщения:    

Текущее время: Сегодня 22:52

Часовой пояс: GMT



Вы не можете начинать темы
Вы не можете отвечать на сообщения
Вы не можете редактировать свои сообщения
Вы не можете удалять свои сообщения
Вы не можете голосовать в опросах
Вы не можете прикреплять файлы к сообщениям
Вы не можете скачивать файлы
Наши партнеры: интернет магазин Ивановского трикотажа textilla.ru