Важное объявление!
У Нас Все раздачи мультитрекерные, при нуле пиров в релизах, можете смело вставать на закачку!
 
Автор Сообщение

HUNTER

Стаж:
4 года 4 месяца
Сообщений:
56722

Репутация: 101

[+] [-]
Вне форума [Профиль] [ЛС]

Лило и Стич / Lilo & Stitch
-Страна: США
Жанр: Мультфильм, фантастика, приключения, семейный
Год выпуска: 2002
Продолжительность: 01:25:45
Перевод 1: Профессиональный (полное дублирование), (Нева-1)
Перевод 2: Авторский (одноголосый закадровый) (А.Гаврилов)
Перевод 3: Авторский (одноголосый закадровый) (Ю.Живов)
Перевод 4: Профессиональный (двухголосый закадровый) (П.Гланц, Т.Казакова)
Русские субтитры: есть-Режиссер: Дин ДеБлуа, Крис Сандерс / Dean DeBlois, Chris Sanders
В ролях: Дэйви Чейз, Крис Сандерс, Тиа Каррере, Дэвид Огден Стайерз, Кевин МакДональд, Винг Реймз, Зои Колдуэлл, Джейсон Скотт Ли, Кевин Майкл Ричардсон, Сьюзэн Хегарти
Описание: Лило - это маленькая девочка, живущая на Гавайах. Она сирота и живет вместе со своей старшей сестрой Нани. Лило любит всех животных, но больше всего она подружилась с собачкой по имени Стич, которая на самом деле совсем не собачка, а - замаскированный инопланетянин.
Дело было так: некоего преступника по имени Стич переправляли в интергалактическую тюрьму, но ему удалось ускользнуть и приземлиться на Земле, где он и встретил Лило. И тут Стич прикинулся собакой, дабы скрыться от преследования интергалактической полиции. Теперь Стич учится тому, чему не был обучен - заботе о других...
-За дорожки 2,3,4,6 спасибо *Sergeant_am*, За дорожку 5 спасибо ratbol-Качество видео: WEB-DL 720p
Формат: MKV
Видео: 1212x720 (1.68:1), 23.976 кадра/сек, AVC, 4000 Кбит/сек
Аудио 1: AC-3, 384 Кбит/сек, 6 каналов, 48,0 КГц | DUB
Аудио 2: AC-3, 384 Кбит/сек, 6 каналов, 48,0 КГц | (А.Гаврилов)
Аудио 3: AC-3, 384 Кбит/сек, 6 каналов, 48,0 КГц | (Ю.Живов)
Аудио 4: AC-3, 448 Кбит/сек, 6 каналов, 48,0 КГц | DVO
Аудио 5: AC-3, 192 Кбит/сек, 2 канала, 48,0 КГц | UKR Дубляж (LeDoyen Studio)
Аудио 6: AC-3, 448 Кбит/сек, 6 каналов, 48,0 КГц | ENG
Cубтитры: Russian, English
-- -
-
Цитата:

  • Сохранены оригинальные чаптеры.
  • Исходный WEB-DL куплен в рамках сервиса "Копилка". Спонсоры: UltraHD, Virusoff, RAUL, trava и Loki1982.

MediaInfo

Код:
General
Unique ID                                : 233757479420656009637328126029086858203 (0xAFDC0D8D165DFFB2BD2A1E27D4BC1BDB)
Complete name                            : D:\ФИЛЬМЫ\Uploads\Lilo.&.Stitch.2002.720p.WEB-DL.mkv
Format                                   : Matroska
Format version                           : Version 2
File size                                : 3.76 GiB
Duration                                 : 1h 25mn
Overall bit rate                         : 6 284 Kbps
Movie name                               : Lilo & Stitch (2002) - Release for HDCLUB
Encoded date                             : UTC 2013-01-09 13:12:24
Writing application                      : mkvmerge v5.8.0 ('No Sleep / Pillow') built on Sep  2 2012 15:37:04
Writing library                          : libebml v1.2.3 + libmatroska v1.3.0
Video
ID                                       : 1
Format                                   : AVC
Format/Info                              : Advanced Video Codec
Format profile                           : High@L3.1
Format settings, CABAC                   : No
Format settings, ReFrames                : 2 frames
Codec ID                                 : V_MPEG4/ISO/AVC
Duration                                 : 1h 25mn
Bit rate                                 : 3 919 Kbps
Width                                    : 1 212 pixels
Height                                   : 720 pixels
Display aspect ratio                     : 1.683
Frame rate mode                          : Constant
Frame rate                               : 23.976 fps
Color space                              : YUV
Chroma subsampling                       : 4:2:0
Bit depth                                : 8 bits
Scan type                                : Progressive
Bits/(Pixel*Frame)                       : 0.187
Stream size                              : 2.35 GiB (62%)
Title                                    : Lilo & Stitch (2002)
Language                                 : English
Default                                  : No
Forced                                   : No
Color primaries                          : BT.709
Transfer characteristics                 : BT.709
Matrix coefficients                      : BT.709
Audio #1
ID                                       : 2
Format                                   : AC-3
Format/Info                              : Audio Coding 3
Mode extension                           : CM (complete main)
Format settings, Endianness              : Big
Codec ID                                 : A_AC3
Duration                                 : 1h 25mn
Bit rate mode                            : Constant
Bit rate                                 : 384 Kbps
Channel(s)                               : 6 channels
Channel positions                        : Front: L C R, Side: L R, LFE
Sampling rate                            : 48.0 KHz
Bit depth                                : 16 bits
Compression mode                         : Lossy
Stream size                              : 236 MiB (6%)
Title                                    : Дублированный (Нева-1)
Language                                 : Russian
Default                                  : Yes
Forced                                   : No
Audio #2
ID                                       : 3
Format                                   : AC-3
Format/Info                              : Audio Coding 3
Mode extension                           : CM (complete main)
Format settings, Endianness              : Big
Codec ID                                 : A_AC3
Duration                                 : 1h 25mn
Bit rate mode                            : Constant
Bit rate                                 : 384 Kbps
Channel(s)                               : 6 channels
Channel positions                        : Front: L C R, Side: L R, LFE
Sampling rate                            : 48.0 KHz
Bit depth                                : 16 bits
Compression mode                         : Lossy
Delay relative to video                  : 600ms
Stream size                              : 236 MiB (6%)
Title                                    : Авторский одноголосый (А.Гаврилов)
Language                                 : Russian
Default                                  : No
Forced                                   : No
Audio #3
ID                                       : 4
Format                                   : AC-3
Format/Info                              : Audio Coding 3
Mode extension                           : CM (complete main)
Format settings, Endianness              : Big
Codec ID                                 : A_AC3
Duration                                 : 1h 25mn
Bit rate mode                            : Constant
Bit rate                                 : 384 Kbps
Channel(s)                               : 6 channels
Channel positions                        : Front: L C R, Side: L R, LFE
Sampling rate                            : 48.0 KHz
Bit depth                                : 16 bits
Compression mode                         : Lossy
Delay relative to video                  : 600ms
Stream size                              : 236 MiB (6%)
Title                                    : Авторский одноголосый (Ю.Живов)
Language                                 : Russian
Default                                  : No
Forced                                   : No
Audio #4
ID                                       : 5
Format                                   : AC-3
Format/Info                              : Audio Coding 3
Mode extension                           : CM (complete main)
Format settings, Endianness              : Big
Codec ID                                 : A_AC3
Duration                                 : 1h 25mn
Bit rate mode                            : Constant
Bit rate                                 : 448 Kbps
Channel(s)                               : 6 channels
Channel positions                        : Front: L C R, Side: L R, LFE
Sampling rate                            : 48.0 KHz
Bit depth                                : 16 bits
Compression mode                         : Lossy
Delay relative to video                  : 600ms
Stream size                              : 275 MiB (7%)
Title                                    : Двухголосый закадровый (П.Гланц, Т.Казакова)
Language                                 : Russian
Default                                  : No
Forced                                   : No
Audio #5
ID                                       : 6
Format                                   : AC-3
Format/Info                              : Audio Coding 3
Mode extension                           : CM (complete main)
Format settings, Endianness              : Big
Codec ID                                 : A_AC3
Duration                                 : 1h 25mn
Bit rate mode                            : Constant
Bit rate                                 : 192 Kbps
Channel(s)                               : 2 channels
Channel positions                        : Front: L R
Sampling rate                            : 48.0 KHz
Bit depth                                : 16 bits
Compression mode                         : Lossy
Stream size                              : 118 MiB (3%)
Title                                    : Полное дублирование  (LeDoyen Studio)
Language                                 : Ukrainian
Default                                  : No
Forced                                   : No
Audio #6
ID                                       : 7
Format                                   : AC-3
Format/Info                              : Audio Coding 3
Mode extension                           : CM (complete main)
Format settings, Endianness              : Big
Codec ID                                 : A_AC3
Duration                                 : 1h 25mn
Bit rate mode                            : Constant
Bit rate                                 : 448 Kbps
Channel(s)                               : 6 channels
Channel positions                        : Front: L C R, Side: L R, LFE
Sampling rate                            : 48.0 KHz
Bit depth                                : 16 bits
Compression mode                         : Lossy
Delay relative to video                  : 600ms
Stream size                              : 275 MiB (7%)
Title                                    : Original
Language                                 : English
Default                                  : No
Forced                                   : No
Text #1
ID                                       : 8
Format                                   : UTF-8
Codec ID                                 : S_TEXT/UTF8
Codec ID/Info                            : UTF-8 Plain Text
Language                                 : Russian
Default                                  : No
Forced                                   : No
Text #2
ID                                       : 9
Format                                   : UTF-8
Codec ID                                 : S_TEXT/UTF8
Codec ID/Info                            : UTF-8 Plain Text
Language                                 : English
Default                                  : No
Forced                                   : No
Menu
00:00:00.000                             : en:1
00:02:58.000                             : en:2
00:06:36.000                             : en:3
00:08:32.000                             : en:4
00:09:54.000                             : en:5
00:14:57.000                             : en:6
00:20:01.000                             : en:7
00:21:37.000                             : en:8
00:23:57.000                             : en:9
00:24:57.000                             : en:10
00:28:43.000                             : en:11
00:30:29.000                             : en:12
00:31:46.000                             : en:13
00:35:02.000                             : en:14
00:36:39.000                             : en:15
00:39:32.000                             : en:16
00:41:02.000                             : en:17
00:46:06.000                             : en:18
00:49:36.000                             : en:19
00:50:28.000                             : en:20
00:52:10.000                             : en:21
00:55:14.000                             : en:22
00:55:50.000                             : en:23
00:57:21.000                             : en:24
01:02:36.000                             : en:25
01:03:43.000                             : en:26
01:05:09.000                             : en:27
01:07:55.000                             : en:28
01:13:56.000                             : en:29
01:17:21.000                             : en:30

Скриншоты


_________________
Показать сообщения:    

Текущее время: Сегодня 09:44

Часовой пояс: GMT



Вы не можете начинать темы
Вы не можете отвечать на сообщения
Вы не можете редактировать свои сообщения
Вы не можете удалять свои сообщения
Вы не можете голосовать в опросах
Вы не можете прикреплять файлы к сообщениям
Вы не можете скачивать файлы