Важное объявление!
У Нас Все раздачи мультитрекерные, при нуле пиров в релизах, можете смело вставать на закачку!
 
Автор Сообщение

Shalun

Стаж:
4 года 4 месяца
Сообщений:
802

Репутация: 123

[+] [-]
Вне форума [Профиль] [ЛС]

Лило и Стич 2: Большая проблема Стича
Lilo & Stitch 2: Stitch Has a Glitch--
Год выпуска: 2005
Страна: США
Жанр: мультфильм, фантастика, драма, комедия, семейный...
Продолжительность: 01:08:13
Перевод: Профессиональный (дублированный)
Субтитры: Russian (UTF-8), English (UTF-8)
Режиссер:
  • Майкл ЛаБаш, Энтони Леондис
    Сценарий: Энтони Леондис, Майкл ЛаБаш, Алекса Юнге, ...
    Продюсер: Кристофер Чейз, Энджи Дайст, Кара Лорд, ...
    Композитор: Джоэл МакНили
    Художник: Дэннис Греко, Марианн Томас
    Монтаж: Уильям Дж. Капарелла
    В ролях: Крис Сандерс / Chris Sanders (Stitch, озвучка), Дакота Фаннинг / Dakota Fanning (Lilo, озвучка), Тиа Каррере / Tia Carrere (Nani, озвучка), Дэвид Огден Стайерз / David Ogden Stiers (Dr. Jumba Jookiba, озвучка), Кевин МакДональд / Kevin McDonald (Pleakley, озвучка), Кунева Моок / Kunewa Mook (Kumu, озвучка), Джейсон Скотт Ли / Jason Scott Lee (David Kawena, озвучка), Уильям Дж. Капарелла / William J. Caparella (дополнительные голоса, озвучка)

    Описание: Стич помогает Лило пойти по стопам ее матери в подготовке к большому танцевальному конкурсу на острове. Жизнь кажется идеальной, пока Стич не попадает в затруднительное положение, и тогда все идет наперекосяк. И вот пришла пора Лило, Нани, Джамба и их всей большой семье последовать законам «Оханы» и прийти на помощь маленькому веселому другу.
    Премьера (мир): 15 августа 2005, ...
    Релиз на DVD: 18 марта 2010, «Уолт Дисней Компани СНГ», ...
    Рейтинг MPAA: Рекомендуется присутствие родителей


    Качество: BDRip.1080р
    Формат: MKV
    Видео кодек: AVC
    Аудио кодеk: AC3
    Видео: 1920x1080 (16:9), 23.976 fps, AVC, 8 300 Kbps
    Аудио #1: AC3, 448 Kbps, 48.0 KHz, 6 ch (Дубляж)
    Аудио #2: AC3, 448 Kbps, 48.0 KHz, 6 ch (English)
    --

    МедиаИнфо

    Лог:
    - x264 [info]: frame I:902 Avg QP:12.68 size:273254
    - x264 [info]: frame P:28033 Avg QP:14.70 size: 83111
    - x264 [info]: frame B:68980 Avg QP:15.61 size: 24096
    General
    Complete name : Lilo.and.Stich.2.2005.BDRip.1080p.mkv
    Format : Matroska
    File size : 4.38 GiB
    Duration : 1h 8mn
    Overall bit rate : 9 182 Kbps
    Encoded date : UTC 2013-06-02 08:24:43
    Writing application : mkvmerge v6.1.0 ('Old Devil') built on Mar 2 2013 14:32:37
    Writing library : libebml v1.3.0 + libmatroska v1.4.0
    Video
    ID : 1
    Format : AVC
    Format/Info : Advanced Video Codec
    Format profile : High@L4.1
    Format settings, CABAC : Yes
    Format settings, ReFrames : 4 frames
    Muxing mode : Container profile=Unknown@4.1
    Codec ID : V_MPEG4/ISO/AVC
    Duration : 1h 8mn
    Bit rate : 8 300 Kbps
    Width : 1 920 pixels
    Height : 1 080 pixels
    Display aspect ratio : 16:9
    Frame rate : 23.976 fps
    Color space : YUV
    Chroma subsampling : 4:2:0
    Bit depth : 8 bits
    Scan type : Progressive
    Bits/(Pixel*Frame) : 0.167
    Stream size : 3.86 GiB (88%)
    Writing library : x264 core 133 r2334 a3ac64b
    Encoding settings : cabac=1 / ref=4 / deblock=1:0:0 / analyse=0x3:0x133 / me=umh / subme=10 / psy=1 / psy_rd=1.00:0.00 / mixed_ref=1 / me_range=32 / chroma_me=1 / trellis=2 / 8x8dct=1 / cqm=0 / deadzone=21,11 / fast_pskip=0 / chroma_qp_offset=-2 / threads=6 / lookahead_threads=1 / sliced_threads=0 / nr=0 / decimate=1 / interlaced=0 / bluray_compat=0 / constrained_intra=0 / bframes=10 / b_pyramid=2 / b_adapt=2 / b_bias=0 / direct=3 / weightb=1 / open_gop=0 / weightp=2 / keyint=240 / keyint_min=24 / scenecut=40 / intra_refresh=0 / rc_lookahead=50 / rc=2pass / mbtree=0 / bitrate=8300 / ratetol=2.0 / qcomp=1.00 / qpmin=0 / qpmax=51 / qpstep=4 / cplxblur=20.0 / qblur=0.5 / vbv_maxrate=50000 / vbv_bufsize=62500 / nal_hrd=none / ip_ratio=1.40 / pb_ratio=1.30 / aq=1:1.00
    Color primaries : BT.709-5, BT.1361, IEC 61966-2-4, SMPTE RP177
    Transfer characteristics : BT.709-5, BT.1361
    Matrix coefficients : BT.709-5, BT.1361, IEC 61966-2-4 709, SMPTE RP177
    Audio #1
    ID : 2
    Format : AC-3
    Format/Info : Audio Coding 3
    Mode extension : CM (complete main)
    Codec ID : A_AC3
    Duration : 1h 8mn
    Bit rate mode : Constant
    Bit rate : 448 Kbps
    Channel(s) : 6 channels
    Channel positions : Front: L C R, Side: L R, LFE
    Sampling rate : 48.0 KHz
    Bit depth : 16 bits
    Stream size : 219 MiB (5%)
    Title : Дубляж
    Language : Russian
    Audio #2
    ID : 3
    Format : AC-3
    Format/Info : Audio Coding 3
    Mode extension : CM (complete main)
    Codec ID : A_AC3
    Duration : 1h 8mn
    Bit rate mode : Constant
    Bit rate : 448 Kbps
    Channel(s) : 6 channels
    Channel positions : Front: L C R, Side: L R, LFE
    Sampling rate : 48.0 KHz
    Bit depth : 16 bits
    Stream size : 219 MiB (5%)
    Text #1
    ID : 4
    Format : UTF-8
    Codec ID : S_TEXT/UTF8
    Codec ID/Info : UTF-8 Plain Text
    Language : Russian
    Text #2
    ID : 5
    Format : UTF-8
    Codec ID : S_TEXT/UTF8
    Codec ID/Info : UTF-8 Plain Text
    Menu
    00:00:00.000 : en:00:00:00.000
    00:05:29.704 : en:00:05:29.704
    00:12:34.879 : en:00:12:34.879
    00:18:14.426 : en:00:18:14.426
    00:21:57.149 : en:00:21:57.149
    00:27:41.618 : en:00:27:41.618
    00:37:19.570 : en:00:37:19.570
    00:41:01.500 : en:00:41:01.500
    00:45:05.244 : en:00:45:05.244
    00:47:55.747 : en:00:47:55.747
    00:55:28.325 : en:00:55:28.325
    01:01:12.251 : en:01:01:12.251
    01:08:02.995 : en:01:08:02.995

    Скриншоты

    -

  • _________________
    Показать сообщения:    

    Текущее время: Сегодня 03:26

    Часовой пояс: GMT



    Вы не можете начинать темы
    Вы не можете отвечать на сообщения
    Вы не можете редактировать свои сообщения
    Вы не можете удалять свои сообщения
    Вы не можете голосовать в опросах
    Вы не можете прикреплять файлы к сообщениям
    Вы не можете скачивать файлы