Важное объявление!
У Нас Все раздачи мультитрекерные, при нуле пиров в релизах, можете смело вставать на закачку!
 
Автор Сообщение

HUNTER

Стаж:
4 года 4 месяца
Сообщений:
56842

Репутация: 101

[+] [-]
Вне форума [Профиль] [ЛС]

Лиза и Дьявол / Lisa And The Devil
Страна: Италия, Испания, Германия
Студия: Alfred Leone Productions
Жанр: мистика, фентези, драма
Год выпуска: 1973
Продолжительность: 01:31:44
Перевод: Профессиональный (двухголосый закадровый)
Cубтитры: немецкие
Оригинальная аудиодорожка: итальянский
Режиссер: Марио Бава / Mario Bava
В ролях: Телли Савалас, Элке Соммер, Алида Валли, Сильва Косина, Алессио Орано
Описание: Туристка Лиза отрывается от своей группы в Толедо и идет на звук мелодии, попадая в небольшую мастерскую с человеком, чрезвычайно похожим на изображение дьявола, которое она буквально несколько минут назад увидела на древней фреске. Заблудившись в хитросплетении узеньких улочек, в конечном итоге Лиза вместе с подбросившей ее на автомобиле семейной парой и их шофером попадает в роскошный особняк некой графини, где дверь им открыл уже встреченный ею ранее человек, служивший там дворецким. Приняв приглашение молодого сына графини, Максимилиана, Лиза с попутчиками остается ночевать в особняке, где в течение ночи ей предстоит стать свидетелем множества необычных событий и ужасных для нее моментов. Но даже утром ей не убежать от сюрреалистического кошмара...
Первая версия картины.Спустя два года в 1975 году досняв несколько сцен,она выйдет уже под называнием The House of Exorcism.
Доп. информация: Русская звуковая дорожка взята с этой раздачи http://rutracker.org/forum/viewtopic.php?t=4510294 автору большое спасибо.
За синхронизацию дорожки огромное спасибо Нордер
При пересборе двд были использованы программы:
PgcDemux - разделение компонентов диска на файлы
Muxman - мультиплексирование и авторинг DVD
VobBlanker - реавторинг DVD

Скрин завершения проекта

Бонусы: Трейлеры, альтернативные сцены, биографии и фильмографии.
Сэмпл: http://sendfile.su/1088434
Тип релиза: DVD9 (Custom)
Контейнер: DVD-Video
Видео: PAL 16:9 (720x576) VBR Auto Pan&Scan
Аудио: Russian (Dolby AC3, 192 Кбит/сек? 2 ch)
Аудио 2: Deutsch (Dolby AC3, 192 Кбит/сек? 1 ch)
Аудио 3: English (Dolby AC3, 192 Кбит/сек? 1 ch)
Аудио 4: Italiano (Dolby AC3, 192 Кбит/сек? 1 ch)
Формат субтитров: softsub (SRT)

DVDInfo

Size: 7.10 Gb ( 7 445 300 KBytes ) - DVD-9
Enabled regions: 1, 2, 3, 4, 5, 6, 7, 8
VTS_01 :
Play Length: 00:00:21
Video: PAL 16:9 (720x576) VBR, Auto Pan&Scan
Audio:
Deutsch (Dolby AC3, 6 ch)
VTS_02 :
Play Length: 00:00:12
Video: PAL 16:9 (720x576) VBR, Auto Pan&Scan
Audio:
Deutsch (Dolby AC3, 2 ch)
English (Dolby AC3, 2 ch)
Italiano (Dolby AC3, 2 ch)
VTS_03 :
Play Length: 01:31:44
Video: PAL 16:9 (720x576) VBR, Auto Pan&Scan
Audio:
Russian (Dolby AC3, 2 ch)
Deutsch (Dolby AC3, 1 ch)
English (Dolby AC3, 1 ch)
Italiano (Dolby AC3, 1 ch)
Subtitles:
Deutsch
Deutsch
Deutsch
VTS_04 :
Play Length:
Video: PAL 16:9 (720x576) VBR, Auto Pan&Scan
Subtitles:
Deutsch
VTS_05 :
Play Length: 00:01:58
Video: PAL 16:9 (720x576) VBR, Auto Pan&Scan
Audio:
Deutsch (Dolby AC3, 2 ch)
VTS_06 :
Play Length: 00:02:00
Video: PAL 16:9 (720x576) VBR, Auto Pan&Scan
Audio:
Deutsch (Dolby AC3, 2 ch)
VTS_07 :
Play Length: 00:02:05
Video: PAL 16:9 (720x576) VBR, Auto Pan&Scan
Audio:
Deutsch (Dolby AC3, 2 ch)
VTS_08 :
Play Length: 00:01:08
Video: PAL 16:9 (720x576) VBR, Auto Pan&Scan
Audio:
Not specified (Dolby AC3, 2 ch)
VTS_09 :
Play Length: 00:03:05
Video: PAL 4:3 (720x576) VBR
Audio:
Deutsch (Dolby AC3, 2 ch)
VTS_10 :
Play Length: 00:03:11
Video: PAL 16:9 (720x576) VBR, Auto Pan&Scan
Audio:
Deutsch (Dolby AC3, 2 ch)
VTS_11 :
Play Length: 00:03:18
Video: PAL 4:3 (720x576) VBR
Audio:
English (Dolby AC3, 2 ch)
VTS_12 :
Play Length: 00:02:24
Video: PAL 4:3 (720x576) VBR
Audio:
English (Dolby AC3, 1 ch)
VTS_13 :
Play Length: 00:01:16
Video: PAL 4:3 (720x576) VBR
Audio:
English (Dolby AC3, 2 ch)
VTS_14 :
Play Length: 00:02:14
Video: PAL 4:3 (720x576) VBR
Audio:
English (Dolby AC3, 2 ch)
VTS_15 :
Play Length: 00:00:08
Video: PAL 16:9 (720x576) VBR, Auto Pan&Scan
Subtitles:
Deutsch
VTS_16 :
Play Length: 00:00:15
Video: PAL 16:9 (720x576) VBR, Auto Pan&Scan
Subtitles:
Deutsch
Menu Video:
PAL 16:9 (720x576) VBR
Auto Pan&Scan
Menu Audio:
Not specified (Dolby AC3, 1 ch)
Menu Subtitles:
Not specified
Menu Deutsch Language Unit :
Root Menu
Subpicture Menu
Audio Menu
Angle menu

MediaInfo

Общее
Полное имя : M:\Lisa And The Devil_1974\VIDEO_TS\VTS_03_1.VOB
Формат : MPEG-PS
Размер файла : 1024 Мбайт
Продолжительность : 15 м.
Режим общего битрейта : Переменный
Общий поток : 8974 Кбит/сек
Видео
Идентификатор : 224 (0xE0)
Формат : MPEG Video
Версия формата : Version 2
Профиль формата : Main@Main
Параметр BVOP формата : Да
Параметр матрицы формата : Выборочная
Продолжительность : 15 м.
Вид битрейта : Переменный
Битрейт : 8027 Кбит/сек
Максимальный битрейт : 9120 Кбит/сек
Ширина : 720 пикселей
Высота : 576 пикселей
Соотношение сторон : 16:9
Частота кадров : 25,000 кадров/сек
Стандарт вещания : PAL
Цветовое пространство : YUV
Субдискретизация насыщенности : 4:2:0
Битовая глубина : 8 бит
Тип развёртки : Чересстрочная
Порядок развёртки : Верхнее поле первое
Метод сжатия : С потерями
Бит/(Пиксели*Кадры) : 0.774
Размер потока : 916 Мбайт (89%)
Аудио #1
Идентификатор : 189 (0xBD)-128 (0x80)
Формат : AC-3
Формат/Информация : Audio Coding 3
Расширение режима : CM (complete main)
Параметр Endianness формата : Big
Режим смешивания : DVD-Video
Продолжительность : 15 м.
Вид битрейта : Постоянный
Битрейт : 192 Кбит/сек
Каналы : 2 канала
Расположение каналов : Front: L R
Частота : 48,0 КГц
Битовая глубина : 16 бит
Метод сжатия : С потерями
Размер потока : 21,9 Мбайт (2%)
Аудио #2
Идентификатор : 189 (0xBD)-129 (0x81)
Формат : AC-3
Формат/Информация : Audio Coding 3
Расширение режима : CM (complete main)
Параметр Endianness формата : Big
Режим смешивания : DVD-Video
Продолжительность : 15 м.
Вид битрейта : Постоянный
Битрейт : 192 Кбит/сек
Каналы : 1 канал
Расположение каналов : Front: C
Частота : 48,0 КГц
Битовая глубина : 16 бит
Метод сжатия : С потерями
Размер потока : 21,9 Мбайт (2%)
Аудио #3
Идентификатор : 189 (0xBD)-130 (0x82)
Формат : AC-3
Формат/Информация : Audio Coding 3
Расширение режима : CM (complete main)
Параметр Endianness формата : Big
Режим смешивания : DVD-Video
Продолжительность : 15 м.
Вид битрейта : Постоянный
Битрейт : 192 Кбит/сек
Каналы : 1 канал
Расположение каналов : Front: C
Частота : 48,0 КГц
Битовая глубина : 16 бит
Метод сжатия : С потерями
Размер потока : 21,9 Мбайт (2%)
Аудио #4
Идентификатор : 189 (0xBD)-131 (0x83)
Формат : AC-3
Формат/Информация : Audio Coding 3
Расширение режима : CM (complete main)
Параметр Endianness формата : Big
Режим смешивания : DVD-Video
Продолжительность : 15 м.
Вид битрейта : Постоянный
Битрейт : 192 Кбит/сек
Каналы : 1 канал
Расположение каналов : Front: C
Частота : 48,0 КГц
Битовая глубина : 16 бит
Метод сжатия : С потерями
Размер потока : 21,9 Мбайт (2%)
Текст #1
Идентификатор : 189 (0xBD)-33 (0x21)
Формат : RLE
Формат/Информация : Run-length encoding
Режим смешивания : DVD-Video
Текст #2
Идентификатор : 189 (0xBD)-34 (0x22)
Формат : RLE
Формат/Информация : Run-length encoding
Режим смешивания : DVD-Video
Меню

Постеры и обложка

Скриншоты меню


_________________
Показать сообщения:    

Текущее время: Сегодня 20:27

Часовой пояс: GMT



Вы не можете начинать темы
Вы не можете отвечать на сообщения
Вы не можете редактировать свои сообщения
Вы не можете удалять свои сообщения
Вы не можете голосовать в опросах
Вы не можете прикреплять файлы к сообщениям
Вы не можете скачивать файлы
Наши партнеры: интернет магазин Ивановского трикотажа textilla.ru