Важное объявление!
У Нас Все раздачи мультитрекерные, при нуле пиров в релизах, можете смело вставать на закачку!
 
Автор Сообщение

HUNTER

Стаж:
4 года 4 месяца
Сообщений:
56798

Репутация: 101

[+] [-]
Вне форума [Профиль] [ЛС]

Лига справедливости: Парадокс источника конфликта
Justice League: The Flashpoint Paradox
Год выпуска: 2013
Страна: США
Жанр: мультфильм, комикс, фантастика, боевик, приключения
Продолжительность: 01:21:14
Перевод:
Любительский (Многоголосый закадровый) - Arasi Project
Любительский (Многоголосый закадровый) - SkyeFilmTV
Любительский (Многоголосый закадровый) - DuBDrag Project
Одноголосый закадровый) - Hronos
русские субтитры: есть- Режиссёр: Джей Олива : Jay Oliva- Роли озвучивали: Джастин Чэмберс, Си Томас Хауэлл, Майкл Б. Джордан, Кевин МакКидд, Ди Брэдли Бейкер, Стивен Блум, Кевин Конрой, Сэм Дэйли, Дана Дилэйни, Грэй ДеЛисл- Описание: В центре сюжета приключенческого мультфильма Лига справедливости: Парадокс источника конфликта — история непростого парня Барри Аллена, который позднее станет известен всему миру, как супергерой Флэш, обладающий способностью развивать сверхзвуковую скорость. Спустя долгие годы после убийства матери Барри все еще мучается угрызениями совести, ведь в тот роковой день он должен был прийти домой раньше. Однажды Флэш получает возможность все исправить благодаря путешествие во времени.
Отправившись в прошлое он приходит домой раньше и спасает мать от гибели. Но изменив некие события прошлого Флэш с ужасом узнает, что и будущее кардинально изменилось. Теперь героем Централ-Сити является суперзлодей Капитан Холод, защитник Готэма — Бэтмен стал безжалостным, другие супергерои находятся кто где, их личности так же сильно изменились, а Лиги справедливости не существует. В этом мире суперзлодеи остаются безнаказанными и Флэшу приходится действовать. Но сможет ли он один изменить действительность?- релиз: - Качество: BDRemux 1080p
Формат: MKV
Видео кодек: AVC
Аудио кодек: DTS MA : DTS : AC3
Видео: 1980x1080 , 23,976 fps, ~18,0 Мbps avg, 0.564 bit/pixel
Аудио #1: [RUS] 48 kHz, AC3 Dolby Digital, 3/2 (L,C,R,l,r) + LFE ch, ~640 kbps - Arasi Project
Аудио #2: [RUS] DTS-HD MA / 5.1 / 48 kHz / 4235 kbps / 24-bit (DTS Core: 5.1 / 48 kHz / 1509 kbps / 24-bit) - SkyeFilmTV
Аудио #3: [RUS] DTS / 5.1 / 48 kHz / 1509 kbps / 16-bit - DuBDrag Project
Аудио #4: [RUS] 48 kHz, AC3 Dolby Digital, 2/0 (L,R) ch, ~192 kbps kbps avg - Hronos
Аудио #5: [ENG] DTS-HD MA / 5.1 / 48 kHz / 4373 kbps / 24-bit (DTS Core: 5.1 / 48 kHz / 1509 kbps / 24-bit)
субтитры: 2х русские - voronine; GeekiLeaks, английские
навигация по главам: 9 глав

MediaInfo

Общее
Уникальный идентификатор : 237441456117949254312963936899700808016 (0xB2A18FA029C81AD1B7A1D4CF8E2ED950)
Полное имя : D:\Im\Лига справедливости. Флешпоинт\Justice League The Flashpoint Paradox.2013.BDRemux 1080p.mkv
Формат : Matroska
Версия формата : Version 4 / Version 2
Размер файла : 16,4 Гбайт
Продолжительность : 1 ч. 21 м.
Режим общего битрейта : Переменный
Общий поток : 28,9 Мбит/сек
Название фильма : Justice League: The Flashpoint Paradox.2013.BDRemux 1080p [-Azureus-]
Дата кодирования : UTC 2014-03-19 23:38:37
Программа кодирования : mkvmerge v6.8.0 ('Theme for Great Cities') 32bit built on Mar 2 2014 21:27:07
Библиотека кодирования : libebml v1.3.0 + libmatroska v1.4.1
Видео
Идентификатор : 1
Формат : AVC
Формат/Информация : Advanced Video Codec
Профиль формата : High@L4.0
Параметр CABAC формата : Да
Параметр ReFrames формата : 2 кадра
Идентификатор кодека : V_MPEG4/ISO/AVC
Продолжительность : 1 ч. 21 м.
Вид битрейта : Переменный
Ширина : 1920 пикселей
Высота : 1080 пикселей
Соотношение сторон : 16:9
Режим частоты кадров : Постоянный
Частота кадров : 23,976 кадра/сек
Цветовое пространство : YUV
Субдискретизация насыщенности : 4:2:0
Битовая глубина : 8 бит
Тип развёртки : Прогрессивная
Язык : English
Default : Да
Forced : Нет
Аудио #1
Идентификатор : 2
Формат : AC-3
Формат/Информация : Audio Coding 3
Расширение режима : CM (complete main)
Параметр Endianness формата : Big
Идентификатор кодека : A_AC3
Продолжительность : 1 ч. 21 м.
Вид битрейта : Постоянный
Битрейт : 640 Кбит/сек
Каналы : 6 каналов
Расположение каналов : Front: L C R, Side: L R, LFE
Частота : 48,0 КГц
Битовая глубина : 16 бит
Метод сжатия : С потерями
Размер потока : 372 Мбайт (2%)
Заголовок : MVO [Arasi Project]
Язык : Russian
Default : Да
Forced : Нет
Аудио #2
Идентификатор : 3
Формат : DTS
Формат/Информация : Digital Theater Systems
Профиль формата : MA / Core
Режим : 16
Параметр Endianness формата : Big
Идентификатор кодека : A_DTS
Продолжительность : 1 ч. 21 м.
Вид битрейта : Переменный
Битрейт : Неизвестно / 1509 Кбит/сек
Каналы : 6 каналов
Расположение каналов : Front: L C R, Side: L R, LFE
Частота : 48,0 КГц
Битовая глубина : 24 бит
Метод сжатия : Без потерь / Lossy
Заголовок : MVO [SkyeFilmTV]
Язык : Russian
Default : Нет
Forced : Нет
Аудио #3
Идентификатор : 4
Формат : DTS
Формат/Информация : Digital Theater Systems
Режим : 16
Параметр Endianness формата : Big
Идентификатор кодека : A_DTS
Продолжительность : 1 ч. 21 м.
Вид битрейта : Постоянный
Битрейт : 1509 Кбит/сек
Каналы : 6 каналов
Расположение каналов : Front: L C R, Side: L R, LFE
Частота : 48,0 КГц
Битовая глубина : 24 бит
Метод сжатия : С потерями
Размер потока : 877 Мбайт (5%)
Заголовок : MVO [DuBDrag Project]
Язык : Russian
Default : Нет
Forced : Нет
Аудио #4
Идентификатор : 5
Формат : AC-3
Формат/Информация : Audio Coding 3
Расширение режима : CM (complete main)
Параметр Endianness формата : Big
Идентификатор кодека : A_AC3
Продолжительность : 1 ч. 21 м.
Вид битрейта : Постоянный
Битрейт : 192 Кбит/сек
Каналы : 2 канала
Расположение каналов : Front: L R
Частота : 48,0 КГц
Битовая глубина : 16 бит
Метод сжатия : С потерями
Размер потока : 112 Мбайт (1%)
Заголовок : VO [Hronos]
Язык : Russian
Default : Нет
Forced : Нет
Аудио #5
Идентификатор : 6
Формат : DTS
Формат/Информация : Digital Theater Systems
Профиль формата : MA / Core
Режим : 16
Параметр Endianness формата : Big
Идентификатор кодека : A_DTS
Продолжительность : 1 ч. 21 м.
Вид битрейта : Переменный
Битрейт : Неизвестно / 1509 Кбит/сек
Каналы : 6 каналов
Расположение каналов : Front: L C R, Side: L R, LFE
Частота : 48,0 КГц
Битовая глубина : 24 бит
Метод сжатия : Без потерь / Lossy
Заголовок : ENG
Язык : English
Default : Нет
Forced : Нет
Текст #1
Идентификатор : 7
Формат : UTF-8
Идентификатор кодека : S_TEXT/UTF8
Идентификатор кодека/Информация : UTF-8 Plain Text
Заголовок : Rus Sub [voronine]
Язык : Russian
Default : Нет
Forced : Нет
Текст #2
Идентификатор : 8
Формат : UTF-8
Идентификатор кодека : S_TEXT/UTF8
Идентификатор кодека/Информация : UTF-8 Plain Text
Заголовок : Rus Sub [GeekiLeaks]
Язык : Russian
Default : Нет
Forced : Нет
Текст #3
Идентификатор : 9
Формат : UTF-8
Идентификатор кодека : S_TEXT/UTF8
Идентификатор кодека/Информация : UTF-8 Plain Text
Заголовок : Eng Sub [SDH]
Язык : English
Default : Нет
Forced : Нет
Меню
00:00:00.000 : en:00:00:00.000
00:11:00.159 : en:00:11:00.159
00:19:52.817 : en:00:19:52.817
00:29:56.795 : en:00:29:56.795
00:41:41.916 : en:00:41:41.916
00:50:18.057 : en:00:50:18.057
00:59:39.993 : en:00:59:39.993
01:11:01.466 : en:01:11:01.466
01:17:52.668 : en:01:17:52.668
____________________________________________
Стою на раздаче до 5 дней.
Просьба скачавшим как можно дольше не покидать раздачу!
ВСЕМ ПРИЯТНОГО ПРОСМОТРА!_________________________________________

_________________
Показать сообщения:    

Текущее время: Сегодня 20:25

Часовой пояс: GMT



Вы не можете начинать темы
Вы не можете отвечать на сообщения
Вы не можете редактировать свои сообщения
Вы не можете удалять свои сообщения
Вы не можете голосовать в опросах
Вы не можете прикреплять файлы к сообщениям
Вы не можете скачивать файлы