Важное объявление!
У Нас Все раздачи мультитрекерные, при нуле пиров в релизах, можете смело вставать на закачку!
 
Автор Сообщение

HUNTER

Стаж:
4 года 4 месяца
Сообщений:
56808

Репутация: 101

[+] [-]
Вне форума [Профиль] [ЛС]


Лига справедливости: Война
Justice League: War
«A time when heroes became legends»
-
Страна: США
Жанр: фантастика, фэнтези, боевик
Продолжительность: 01:19:26
Год выпуска: 2014
Перевод:
Профессиональный (Многоголосый закадровый) - SDI Media
Любительский (Многоголосый закадровый) - BaibaKo
Любительский (Многоголосый закадровый) - SkyeFilmTV
Любительский (Многоголосый закадровый) - Kapets's Studios
Любительский (Двухголосый закадровый) - LE-Production
Одноголосый закадровый) - Marvel
Одноголосый закадровый) - Hronos
русские субтитры: есть
Режиссёр: Джей Олива / Jay Oliva
Роли озвучивали: Мишель Монахэн, Алан Тьюдик, Шон Эстин, Шемар Мур, Джастин Кирк, Кристофер Горам, Джейсон О’Мара, Джордж Ньюберн, Стивен Блум, Брюс Томас-ОписаниеЛучшие герои мира решают создать Лигу Справедливости, чтобы остановить инопланетное вторжение на Землю.-Профессиональный (многоголосый закадровый) SDI Media записал с TV1000 Megahit HD и синхронизировал xfiles-Релиз:

Сэмпл

IMDb: 7.20 (13 645)
Качество: BDRip 720p BDRemux 1080p
Формат: MKV
Видео: AVC 3374 Kbps 1280 x 720 (1.778) 23.976 fps
Аудио #1: [RUS] 48 kHz, AC3 Dolby Digital, 2/0 (L,R) ch, ~192 kbps kbps avg - SDI Media
Аудио #2: [RUS] 48 kHz, AC3 Dolby Digital, 3/2 (L,C,R,l,r) + LFE ch, ~640 kbps - SkyeFilmTV
Аудио #3: [RUS] 48 kHz, AC3 Dolby Digital, 3/2 (L,C,R,l,r) + LFE ch, ~384 kbps - BaibaKo
Аудио #4: [RUS] 48 kHz, AC3 Dolby Digital, 3/2 (L,C,R,l,r) + LFE ch, ~384 kbps - Kapets's Studios
Аудио #5: [RUS] 48 kHz, AC3 Dolby Digital, 3/2 (L,C,R,l,r) + LFE ch, ~384 kbps - LE-Production
Аудио #6: [RUS] 48 kHz, AC3 Dolby Digital, 3/2 (L,C,R,l,r) + LFE ch, ~384 kbps Marvel
Аудио #7: [RUS] 48 kHz, AC3 Dolby Digital, 2/0 (L,R) ch, ~192 kbps kbps avg - Hronos
Аудио #8: [ENG] 48 kHz, AC3 Dolby Digital, 3/2 (L,C,R,l,r) + LFE ch, ~640 kbps
субтитры: русские - Dakota Family, английские (full, SDH)
навигация по главам: 9 глав

MI | Log

Log
x264 [info]: frame I:1157 Avg QP:11.49 size:102030
x264 [info]: frame P:32606 Avg QP:13.23 size: 35565
x264 [info]: frame B:80526 Avg QP:14.14 size: 10055
x264 [info]: consecutive B-frames: 5.5% 8.6% 8.0% 52.5% 7.7% 6.0% 1.3% 7.2% 0.9% 1.4% 0.9%
x264 [info]: mb I I16..4: 8.5% 63.9% 27.6%
x264 [info]: mb P I16..4: 1.8% 14.1% 4.2% P16..4: 25.7% 29.1% 10.3% 2.3% 0.3% skip:12.3%
x264 [info]: mb B I16..4: 0.4% 1.6% 0.4% B16..8: 29.7% 17.5% 3.0% direct: 3.8% skip:43.6% L0:48.4% L1:45.6% BI: 6.0%
x264 [info]: 8x8 transform intra:68.9% inter:46.7%
x264 [info]: direct mvs spatial:100.0% temporal:0.0%
x264 [info]: coded y,uvDC,uvAC intra: 78.0% 73.0% 57.9% inter: 15.1% 13.2% 4.6%
x264 [info]: i16 v,h,dc,p: 27% 15% 6% 51%
x264 [info]: i8 v,h,dc,ddl,ddr,vr,hd,vl,hu: 11% 12% 14% 9% 10% 9% 11% 10% 15%
x264 [info]: i4 v,h,dc,ddl,ddr,vr,hd,vl,hu: 12% 10% 11% 9% 14% 11% 12% 9% 12%
x264 [info]: i8c dc,h,v,p: 36% 33% 17% 15%
x264 [info]: Weighted P-Frames: Y:2.7% UV:1.9%
x264 [info]: ref P L0: 50.6% 5.2% 16.5% 7.4% 5.7% 4.8% 4.1% 2.6% 2.6% 0.4% 0.0%
x264 [info]: ref B L0: 64.6% 13.9% 8.0% 4.4% 3.5% 3.0% 1.8% 0.7%
x264 [info]: ref B L1: 91.4% 8.6%
x264 [info]: kb/s:3503.15
x264 [total]: encoded 114289 frames, 8.12 fps, 3503.15 kb/s, duration 3:54:34.07
Format : Matroska
Format version : Version 4 / Version 2
File size : 3.72 GiB
Duration : 1h 19mn
Overall bit rate : 6 707 Kbps
Encoded date : UTC 2015-10-27 10:57:12
Writing application : mkvmerge v6.7.0 ('Back to the Ground') 32bit built on Jan 8 2014 15:03:17
Writing library : libebml v1.3.0 + libmatroska v1.4.1
Video
ID : 1
Format : AVC
Format/Info : Advanced Video Codec
Format profile : High@L4.1
Format settings, CABAC : Yes
Format settings, ReFrames : 9 frames
Codec ID : V_MPEG4/ISO/AVC
Duration : 1h 19mn
Bit rate : 3 374 Kbps
Width : 1 280 pixels
Height : 720 pixels
Display aspect ratio : 16:9
Frame rate mode : Constant
Frame rate : 23.976 fps
Color space : YUV
Chroma subsampling : 4:2:0
Bit depth : 8 bits
Scan type : Progressive
Bits/(Pixel*Frame) : 0.153
Stream size : 1.87 GiB (50%)
Title : Justice League: War (2014) [rutracker.org]
Writing library : x264 core 148 r2579kMod 73ae2d1
Encoding settings : cabac=1 / ref=9 / deblock=1:-3:-2 / analyse=0x3:0x133 / me=umh / subme=11 / psy=1 / fade_compensate=0.00 / psy_rd=1.00:0.05 / mixed_ref=1 / me_range=32 / chroma_me=1 / trellis=2 / 8x8dct=1 / cqm=0 / deadzone=21,11 / fast_pskip=0 / chroma_qp_offset=-3 / threads=12 / lookahead_threads=3 / sliced_threads=0 / nr=0 / decimate=1 / interlaced=0 / bluray_compat=0 / constrained_intra=0 / fgo=0 / bframes=10 / b_pyramid=2 / b_adapt=2 / b_bias=0 / direct=3 / weightb=1 / open_gop=0 / weightp=2 / keyint=250 / keyint_min=23 / scenecut=40 / intra_refresh=0 / rc_lookahead=80 / rc=crf / mbtree=0 / crf=16.7000 / qcomp=0.60 / qpmin=0 / qpmax=69 / qpstep=4 / vbv_maxrate=50000 / vbv_bufsize=62500 / crf_max=0.0 / nal_hrd=none / filler=0 / ip_ratio=1.40 / pb_ratio=1.30 / aq=3:0.90
Language : English
Default : Yes
Forced : No
Audio #1
ID : 2
Format : AC-3
Format/Info : Audio Coding 3
Mode extension : CM (complete main)
Format settings, Endianness : Big
Codec ID : A_AC3
Duration : 1h 19mn
Bit rate mode : Constant
Bit rate : 192 Kbps
Channel(s) : 2 channels
Channel positions : Front: L R
Sampling rate : 48.0 KHz
Compression mode : Lossy
Stream size : 109 MiB (3%)
Title : MVO (SDI Media)
Language : Russian
Default : Yes
Forced : No
Audio #2
ID : 3
Format : AC-3
Format/Info : Audio Coding 3
Mode extension : CM (complete main)
Format settings, Endianness : Big
Codec ID : A_AC3
Duration : 1h 19mn
Bit rate mode : Constant
Bit rate : 640 Kbps
Channel(s) : 6 channels
Channel positions : Front: L C R, Side: L R, LFE
Sampling rate : 48.0 KHz
Compression mode : Lossy
Stream size : 364 MiB (10%)
Title : MVO (SkyeFilmTV)
Language : Russian
Default : No
Forced : No
Audio #3
ID : 4
Format : AC-3
Format/Info : Audio Coding 3
Mode extension : CM (complete main)
Format settings, Endianness : Big
Codec ID : A_AC3
Duration : 1h 19mn
Bit rate mode : Constant
Bit rate : 384 Kbps
Channel(s) : 6 channels
Channel positions : Front: L C R, Side: L R, LFE
Sampling rate : 48.0 KHz
Compression mode : Lossy
Stream size : 218 MiB (6%)
Title : MVO (BaibaKo)
Language : Russian
Default : No
Forced : No
Audio #4
ID : 5
Format : AC-3
Format/Info : Audio Coding 3
Mode extension : CM (complete main)
Format settings, Endianness : Big
Codec ID : A_AC3
Duration : 1h 19mn
Bit rate mode : Constant
Bit rate : 384 Kbps
Channel(s) : 6 channels
Channel positions : Front: L C R, Side: L R, LFE
Sampling rate : 48.0 KHz
Compression mode : Lossy
Stream size : 218 MiB (6%)
Title : Kapets's Studios MVO
Language : Russian
Default : No
Forced : No
Audio #5
ID : 6
Format : AC-3
Format/Info : Audio Coding 3
Mode extension : CM (complete main)
Format settings, Endianness : Big
Codec ID : A_AC3
Duration : 1h 19mn
Bit rate mode : Constant
Bit rate : 384 Kbps
Channel(s) : 6 channels
Channel positions : Front: L C R, Side: L R, LFE
Sampling rate : 48.0 KHz
Compression mode : Lossy
Stream size : 218 MiB (6%)
Title : LE-Production DVO
Language : Russian
Default : No
Forced : No
Audio #6
ID : 7
Format : AC-3
Format/Info : Audio Coding 3
Mode extension : CM (complete main)
Format settings, Endianness : Big
Codec ID : A_AC3
Duration : 1h 19mn
Bit rate mode : Constant
Bit rate : 384 Kbps
Channel(s) : 6 channels
Channel positions : Front: L C R, Side: L R, LFE
Sampling rate : 48.0 KHz
Compression mode : Lossy
Stream size : 218 MiB (6%)
Title : Marvel VO
Language : Russian
Default : No
Forced : No
Audio #7
ID : 8
Format : AC-3
Format/Info : Audio Coding 3
Mode extension : CM (complete main)
Format settings, Endianness : Big
Codec ID : A_AC3
Duration : 1h 19mn
Bit rate mode : Constant
Bit rate : 192 Kbps
Channel(s) : 2 channels
Channel positions : Front: L R
Sampling rate : 48.0 KHz
Compression mode : Lossy
Stream size : 109 MiB (3%)
Title : Hronos VO
Language : Russian
Default : No
Forced : No
Audio #8
ID : 9
Format : AC-3
Format/Info : Audio Coding 3
Mode extension : CM (complete main)
Format settings, Endianness : Big
Codec ID : A_AC3
Duration : 1h 19mn
Bit rate mode : Constant
Bit rate : 640 Kbps
Channel(s) : 6 channels
Channel positions : Front: L C R, Side: L R, LFE
Sampling rate : 48.0 KHz
Compression mode : Lossy
Stream size : 364 MiB (10%)
Title : Original
Language : English
Default : No
Forced : No
Text #1
ID : 10
Format : UTF-8
Codec ID : S_TEXT/UTF8
Codec ID/Info : UTF-8 Plain Text
Title : Full
Language : Russian
Default : No
Forced : No
Text #2
ID : 11
Format : UTF-8
Codec ID : S_TEXT/UTF8
Codec ID/Info : UTF-8 Plain Text
Title : Full
Language : English
Default : No
Forced : No
Text #3
ID : 12
Format : UTF-8
Codec ID : S_TEXT/UTF8
Codec ID/Info : UTF-8 Plain Text
Title : SDH
Language : English
Default : No
Forced : No
Menu
00:00:00.000 : en:1.
00:10:19.000 : en:2.
00:20:15.000 : en:3.
00:30:59.000 : en:4.
00:39:38.000 : en:5.
00:50:33.000 : en:6.
00:59:21.000 : en:7.
01:11:14.000 : en:8.
01:15:49.000 : en:9.

Скриншоты





_________________
Показать сообщения:    

Текущее время: Сегодня 10:48

Часовой пояс: GMT



Вы не можете начинать темы
Вы не можете отвечать на сообщения
Вы не можете редактировать свои сообщения
Вы не можете удалять свои сообщения
Вы не можете голосовать в опросах
Вы не можете прикреплять файлы к сообщениям
Вы не можете скачивать файлы