Важное объявление!
У Нас Все раздачи мультитрекерные, при нуле пиров в релизах, можете смело вставать на закачку!
 
Автор Сообщение

HUNTER

Стаж:
4 года 4 месяца
Сообщений:
56734

Репутация: 101

[+] [-]
Вне форума [Профиль] [ЛС]

Лига Справедливости: Война / Justice League: War

Год выпуска: 2014
Страна: США
Жанр: Комикс, мультфильм, фантастика, фэнтези, боевик, приключения
Продолжительность: 01:19:24
Год выпуска: 2014
Перевод: Любительский (многоголосый закадровый) от Kapets's Studios
Русские субтитры: нет
Постер: Ruswon
Режиссёр: Джей Олива / Jay Oliva
Роли озвучивали: Мишель Монахэн, Алан Тьюдик, Шон Эстин, Шемар Мур, Джастин Кирк, Кристофер Горам, Джейсон О’Мара, Джордж Ньюберн, Стивен Блум, Брюс Томас
Описание:Лучшие герои мира решают создать Лигу Справедливости, чтобы остановить инопланетное вторжение на Землю.
Доп. информация: Озвучено специально для группы Вконтакте Kapets's Studios.
--<<Семпл>>--Над релизом работали:
Перевод: Группа в контакте Dakota Family Translators
Озвучивали:
kenpachi
Ormeli
TeT_Rec
kapets--Качество: WEB-DLRip
Формат: AVI
Видео: XviD, 720x400 (16:9), 23,976 fps, 1950 Kbps
Аудио: Русский, AC3, 48 KHz, 2 channels, 192 Kbps
Аудио2: Английский, AC3, 48 KHz, 6 channels, 384 Kbps
Субтитры: отсутствуют

Подробные технические данные

GeneralComplete name : D:\Sony Vegas\видео\Justice League - War\Justice.League.War.2014.AC3.Kapets's.Studios.WEBDLRip.aviFormat : AVIFormat/Info : Audio Video InterleaveFile size : 1.41 GiBDuration : 1h 19mnOverall bit rate : 2 540 KbpsWriting application : VirtualDubMod 1.5.10.2 (build 2540/release)Writing library : VirtualDubMod build 2540/release
VideoID : 0Format : MPEG-4 VisualFormat profile : Advanced Simple@L5Format settings, BVOP : YesFormat settings, QPel : NoFormat settings, GMC : No warppointsFormat settings, Matrix : Default (H.263)Codec ID : XVIDCodec ID/Hint : XviDDuration : 1h 19mnBit rate : 1 950 KbpsWidth : 720 pixelsHeight : 400 pixelsDisplay aspect ratio : 16:9Frame rate : 23.976 fpsColor space : YUVChroma subsampling : 4:2:0Bit depth : 8 bitsScan type : ProgressiveCompression mode : LossyBits/(Pixel*Frame) : 0.282Stream size : 1.08 GiB (77%)Writing library : XviD 1.2.1 (UTC 2008-12-04)
Audio #1ID : 1Format : AC-3Format/Info : Audio Coding 3Mode extension : CM (complete main)Format settings, Endianness : BigCodec ID : 2000Duration : 1h 19mnBit rate mode : ConstantBit rate : 192 KbpsChannel count : 2 channelsChannel positions : Front: L RSampling rate : 48.0 KHzBit depth : 16 bitsCompression mode : LossyStream size : 109 MiB (8%)Alignment : Split accross interleavesInterleave, duration : 42 ms (1.00 video frame)Interleave, preload duration : 500 ms
Audio #2ID : 2Format : AC-3Format/Info : Audio Coding 3Mode extension : CM (complete main)Format settings, Endianness : BigCodec ID : 2000Duration : 1h 19mnBit rate mode : ConstantBit rate : 384 KbpsChannel count : 6 channelsChannel positions : Front: L C R, Side: L R, LFESampling rate : 48.0 KHzBit depth : 16 bitsCompression mode : LossyStream size : 218 MiB (15%)Alignment : Split accross interleavesInterleave, duration : 42 ms (1.00 video frame)Interleave, preload duration : 500 ms

Скриншоты


_________________
Показать сообщения:    

Текущее время: Сегодня 07:49

Часовой пояс: GMT



Вы не можете начинать темы
Вы не можете отвечать на сообщения
Вы не можете редактировать свои сообщения
Вы не можете удалять свои сообщения
Вы не можете голосовать в опросах
Вы не можете прикреплять файлы к сообщениям
Вы не можете скачивать файлы