Важное объявление!
У Нас Все раздачи мультитрекерные, при нуле пиров в релизах, можете смело вставать на закачку!
 
Автор Сообщение

HUNTER

Стаж:
4 года 4 месяца
Сообщений:
56798

Репутация: 101

[+] [-]
Вне форума [Профиль] [ЛС]

Лига Справедливости: В ловушке времени
JLA Adventures: Trapped in Time
Страна: США
Жанр: мультфильм, фантастика, боевик, приключения
Продолжительность: 00:52:35
Год выпуска: 2014-Перевод: Профессиональный (Двухголосый закадровый)
Перевод: Любительский (Многоголосый закадровый) SkyeFilmTV
Русские субтитры: нет
Режиссёр: Джанкарло Волп / Giancarlo Volpe-Роли озвучивали: Дидрих Бадер, Лора Бэйли, Данте Баско, Кори Бертон, Грэй ДеЛисл, Джек Де Сена, Майкл Донован, Том Джибис, Питер Джессоп, Эрика Латтрелл-Описание: Лига Справедливости в опасности! Самый опасный враг Лиги, Лекс Лютер, криминальный гений, изобрёл способ манипулировать прошлым и настоящим. Он хочет изменить прошлое и уничтожить Лигу Справедливости ещё на этапе её формирования.-Релиз: | | -• Работа со звуком xfiles
• Работа с WEB-DL -Azureus--Качество: WEB-DLRip
Формат: AVI
Видео: 688x384 (1.79:1), 23,976 fps, XviD 66 ~1 844 kbps avg, 0.29 bit/pixel
Аудио: 48.0 kHz, MPEG Layer 3, 2/0 (L,R) ch, ~128 kbps |DVO|
Аудио: 48.0 kHz, MPEG Layer 3, 2/0 (L,R) ch, ~128 kbps |MVO|
Субтитры: отсутствуют

MI


General
Complete name : D:\JLA Adventures Trapped in Time.2014.WEB-DLRip.745\JLA Adventures Trapped in Time.2014.WEB-DLRip.avi
Format : AVI
Format/Info : Audio Video Interleave
File size : 745 MiB
Duration : 52mn 35s
Overall bit rate : 1 981 Kbps
Writing application : VirtualDubMod 1.5.10.2 (build 2540/release)
Writing library : VirtualDubMod build 2540/release
Video
ID : 0
Format : MPEG-4 Visual
Format profile : Advanced Simple@L5
Format settings, BVOP : 1
Format settings, QPel : No
Format settings, GMC : No warppoints
Format settings, Matrix : Custom
Codec ID : XVID
Codec ID/Hint : XviD
Duration : 52mn 35s
Bit rate : 1 844 Kbps
Width : 688 pixels
Height : 384 pixels
Display aspect ratio : 16:9
Frame rate : 23.976 fps
Color space : YUV
Chroma subsampling : 4:2:0
Bit depth : 8 bits
Scan type : Progressive
Compression mode : Lossy
Bits/(Pixel*Frame) : 0.291
Stream size : 693 MiB (93%)
Writing library : XviD 66
Audio
ID : 1
Format : MPEG Audio
Format version : Version 1
Format profile : Layer 3
Codec ID : 55
Codec ID/Hint : MP3
Duration : 52mn 35s
Bit rate mode : Constant
Bit rate : 128 Kbps
Channel(s) : 2 channels
Sampling rate : 48.0 KHz
Compression mode : Lossy
Stream size : 48.1 MiB (6%)
Alignment : Aligned on interleaves
Interleave, duration : 42 ms (1.00 video frame)
Interleave, preload duratio : 504 ms

Скриншоты


_________________
Показать сообщения:    

Текущее время: Сегодня 07:42

Часовой пояс: GMT



Вы не можете начинать темы
Вы не можете отвечать на сообщения
Вы не можете редактировать свои сообщения
Вы не можете удалять свои сообщения
Вы не можете голосовать в опросах
Вы не можете прикреплять файлы к сообщениям
Вы не можете скачивать файлы