Важное объявление!
У Нас Все раздачи мультитрекерные, при нуле пиров в релизах, можете смело вставать на закачку!
 
Автор Сообщение

HUNTER

Стаж:
4 года 4 месяца
Сообщений:
56798

Репутация: 101

[+] [-]
Вне форума [Профиль] [ЛС]

Лига справедливости: Боги и монстры
Justice League: Gods and Monsters
Страна: США
Жанр: мультфильм, боевик
Продолжительность: 01:15:42
Год выпуска: 2015-Перевод: Профессиональный (двухголосый закадровый)
Перевод: Любительский (двухголосый закадровый) ZM-Show
Русские субтитры: есть (Dakota Family Translators)
Режиссёр: Сэм Лью / Sam Liu-Роли озвучивали: Бенджамин Брэтт, Майкл С. Холл, Тамара Тейлор, Пэйджет Брюстер, Си Томас Хауэлл, Джейсон Айзекс, Ди Брэдли Бейкер, Эрик Бауза, Ларри Седар, Ричард Чемберлен-Описание: Действие происходит в альтернативной вселенной комиксов DC, где становление классической троицы — костяка Лиги Справедливости — происходило совсем не так, как мы к тому привыкли. Забудьте о традиционных образах Супермена, Бэтмена и Чудо-женщины! Теперь перед нами не самоотверженные защитники слабых и угнетенных, а брутальные и неуправляемые люди, наделенные огромной суперсилой. В конце концов буйный нрав троицы вызывает понятное раздражение у правительства. Вскоре несколько известных учёных находят мертвыми. Подозрение падает на Лигу Справедливости, хотя они не совершали ничего подобного. Правительство попытается обезвредить героев, но те не пойдут на компромисс, и между защитниками человечества и самим человечеством разгорится война.-Релиз: | | -Качество: BDRip
Формат: AVI
Видео: 720x400 (1.80:1), 23,976 fps, XviD 65 ~1 859 kbps avg, 0.27 bit/pixel
Аудио: 48 kHz, AC3 Dolby Digital, 3/2 (L,C,R,l,r) + LFE ch, ~448 kbps avg |DVO|
Аудио: 48 kHz, AC3 Dolby Digital, 3/2 (L,C,R,l,r) + LFE ch, ~448 kbps avg |ENG|
Аудио: 48 kHz, AC3 Dolby Digital, 3/2 (L,C,R,l,r) + LFE ch, ~448 kbps avg |ZM-Show| отдельно
Субтитры: Rus, Eng [SRT]

MI


Общее
Полное имя : E:\incarcare\rip gata\Justice.League.Gods.and.Monsters.2015.avi
Формат : AVI
Формат/Информация : Audio Video Interleave
Размер файла : 1,46 Гбайт
Продолжительность : 1 ч. 15 м.
Общий поток : 2769 Кбит/сек
Программа кодирования : VirtualDubMod 1.5.10.2 (build 2540/release)
Библиотека кодирования : VirtualDubMod build 2540/release
Видео
Идентификатор : 0
Формат : MPEG-4 Visual
Профиль формата : Advanced Simple@L5
Параметр BVOP формата : 1
Параметр QPel формата : Нет
Параметр GMC формата : Без точки перехода
Параметр матрицы формата : Выборочная
Идентификатор кодека : XVID
Идентификатор кодека/Подсказка : XviD
Продолжительность : 1 ч. 15 м.
Битрейт : 1859 Кбит/сек
Ширина : 720 пикселей
Высота : 400 пикселей
Соотношение сторон : 16:9
Частота кадров : 23,976 кадра/сек
Цветовое пространство : YUV
Субдискретизация насыщенности : 4:2:0
Битовая глубина : 8 бит
Тип развёртки : Прогрессивная
Метод сжатия : С потерями
Бит/(Пиксели*Кадры) : 0.269
Размер потока : 1006 Мбайт (67%)
Библиотека кодирования : XviD 65
Аудио #1
Идентификатор : 1
Формат : AC-3
Формат/Информация : Audio Coding 3
Расширение режима : CM (complete main)
Параметр Endianness формата : Big
Идентификатор кодека : 2000
Продолжительность : 1 ч. 15 м.
Вид битрейта : Постоянный
Битрейт : 448 Кбит/сек
Каналы : 6 каналов
Расположение каналов : Front: L C R, Side: L R, LFE
Частота : 48,0 КГц
Метод сжатия : С потерями
Размер потока : 243 Мбайт (16%)
Выравнивание : Разделение по промежуткам
Продолжительность промежутка : 42 мс. (1,00 видеокадр)
Время предзагрузки промежутка : 500 мс.
Аудио #2
Идентификатор : 2
Формат : AC-3
Формат/Информация : Audio Coding 3
Расширение режима : CM (complete main)
Параметр Endianness формата : Big
Идентификатор кодека : 2000
Продолжительность : 1 ч. 15 м.
Вид битрейта : Постоянный
Битрейт : 448 Кбит/сек
Каналы : 6 каналов
Расположение каналов : Front: L C R, Side: L R, LFE
Частота : 48,0 КГц
Метод сжатия : С потерями
Размер потока : 243 Мбайт (16%)
Выравнивание : Разделение по промежуткам
Продолжительность промежутка : 42 мс. (1,00 видеокадр)
Время предзагрузки промежутка : 500 мс.

Скриншоты


_________________
Показать сообщения:    

Текущее время: Сегодня 01:13

Часовой пояс: GMT



Вы не можете начинать темы
Вы не можете отвечать на сообщения
Вы не можете редактировать свои сообщения
Вы не можете удалять свои сообщения
Вы не можете голосовать в опросах
Вы не можете прикреплять файлы к сообщениям
Вы не можете скачивать файлы