Важное объявление!
У Нас Все раздачи мультитрекерные, при нуле пиров в релизах, можете смело вставать на закачку!
 
Автор Сообщение

HUNTER

Стаж:
4 года 4 месяца
Сообщений:
56842

Репутация: 101

[+] [-]
Вне форума [Профиль] [ЛС]

Лига справедливости: Боги и монстры
Justice League: Gods and Monsters
-
Страна: США
Жанр: фантастика, боевик, комикс
Продолжительность: 01:15:42
Год выпуска: 2015
Перевод: Любительский (двухголосый закадровый) ZM-Show
Русские субтитры: есть (Dakota Family Translators)-Режиссёр: Сэм Лью / Sam Liu
Роли озвучивали: Бенджамин Брэтт, Майкл С. Холл, Тамара Тейлор, Пэйджет Брюстер, Си Томас Хауэлл, Джейсон Айзекс, Ди Брэдли Бейкер, Эрик Бауза, Ларри Седар, Ричард Чемберлен-ОписаниеВ альтернативной вселенной совершенно другие воплощения знаменитой супергеройской троицы — после обвинения их в убийстве ученых, работавших на правительство США, им придется противостоять правительству.-Сэмпл

IMDb: 7.10 (1812)
Релиз:

Качество: BDRip 720p BDRemux 1080p
Формат: MKV
Видео: AVC 2580 Kbps 1280 x 720 (1.778) 23.976 fps
Аудио: AC-3 640 Kbps 6 channels, 48.0 KHz DVO ZM-Show
Аудио 2: AC-3 640 Kbps 6 channels, 48.0 KHz Eng
Субтитры: Русские (Dakota Family Translators), English SDH

MI | Log

Log
x264 [info]: frame I:1137 Avg QP: 9.67 size:111763
x264 [info]: frame P:29817 Avg QP:11.86 size: 27681
x264 [info]: frame B:77956 Avg QP:12.46 size: 7131
x264 [info]: consecutive B-frames: 4.6% 7.7% 8.2% 52.0% 7.6% 6.9% 2.1% 5.7% 1.3% 2.2% 1.6%
x264 [info]: mb I I16..4: 17.3% 46.6% 36.1%
x264 [info]: mb P I16..4: 2.6% 9.0% 3.7% P16..4: 23.0% 20.1% 9.5% 2.6% 0.5% skip:28.9%
x264 [info]: mb B I16..4: 0.6% 1.1% 0.4% B16..8: 23.8% 12.2% 2.3% direct: 2.9% skip:56.8% L0:48.1% L1:46.0% BI: 5.9%
x264 [info]: 8x8 transform intra:55.9% inter:36.6%
x264 [info]: direct mvs spatial:99.9% temporal:0.1%
x264 [info]: coded y,uvDC,uvAC intra: 63.9% 71.4% 61.0% inter: 8.8% 9.9% 5.8%
x264 [info]: i16 v,h,dc,p: 54% 18% 10% 18%
x264 [info]: i8 v,h,dc,ddl,ddr,vr,hd,vl,hu: 12% 14% 21% 7% 8% 8% 9% 9% 13%
x264 [info]: i4 v,h,dc,ddl,ddr,vr,hd,vl,hu: 17% 14% 23% 7% 9% 8% 8% 7% 9%
x264 [info]: i8c dc,h,v,p: 39% 34% 16% 11%
x264 [info]: Weighted P-Frames: Y:2.3% UV:1.6%
x264 [info]: ref P L0: 57.9% 3.1% 15.1% 6.9% 4.5% 4.5% 3.3% 2.3% 1.9% 0.4% 0.0%
x264 [info]: ref B L0: 68.9% 13.0% 7.1% 3.7% 2.8% 2.5% 1.5% 0.5%
x264 [info]: ref B L1: 91.6% 8.4%
x264 [info]: kb/s:2656.41
x264 [total]: encoded 108910 frames, 10.08 fps, 2656.41 kb/s, duration 3:00:08.49
Format : Matroska
Format version : Version 4 / Version 2
File size : 2.08 GiB
Duration : 1h 15mn
Overall bit rate : 3 939 Kbps
Encoded date : UTC 2015-08-29 11:04:30
Writing application : mkvmerge v6.7.0 ('Back to the Ground') 32bit built on Jan 8 2014 15:03:17
Writing library : libebml v1.3.0 + libmatroska v1.4.1
Video
ID : 1
Format : AVC
Format/Info : Advanced Video Codec
Format profile : High@L4.1
Format settings, CABAC : Yes
Format settings, ReFrames : 9 frames
Codec ID : V_MPEG4/ISO/AVC
Duration : 1h 15mn
Bit rate : 2 580 Kbps
Width : 1 280 pixels
Height : 720 pixels
Display aspect ratio : 16:9
Frame rate mode : Constant
Frame rate : 23.976 fps
Color space : YUV
Chroma subsampling : 4:2:0
Bit depth : 8 bits
Scan type : Progressive
Bits/(Pixel*Frame) : 0.117
Stream size : 1.36 GiB (66%)
Title : Justice League: Gods and Monsters (2015) [rutracker.org]
Writing library : x264 core 148 r2579kMod 73ae2d1
Encoding settings : cabac=1 / ref=9 / deblock=1:-3:-2 / analyse=0x3:0x133 / me=umh / subme=11 / psy=1 / fade_compensate=0.00 / psy_rd=1.00:0.05 / mixed_ref=1 / me_range=32 / chroma_me=1 / trellis=2 / 8x8dct=1 / cqm=0 / deadzone=21,11 / fast_pskip=0 / chroma_qp_offset=-3 / threads=12 / lookahead_threads=3 / sliced_threads=0 / nr=0 / decimate=1 / interlaced=0 / bluray_compat=0 / constrained_intra=0 / fgo=0 / bframes=10 / b_pyramid=2 / b_adapt=2 / b_bias=0 / direct=3 / weightb=1 / open_gop=0 / weightp=2 / keyint=250 / keyint_min=23 / scenecut=40 / intra_refresh=0 / rc_lookahead=80 / rc=crf / mbtree=0 / crf=16.9000 / qcomp=0.60 / qpmin=0 / qpmax=69 / qpstep=4 / vbv_maxrate=50000 / vbv_bufsize=62500 / crf_max=0.0 / nal_hrd=none / filler=0 / ip_ratio=1.40 / pb_ratio=1.30 / aq=3:0.90
Language : English
Default : Yes
Forced : No
Audio #1
ID : 2
Format : AC-3
Format/Info : Audio Coding 3
Mode extension : CM (complete main)
Format settings, Endianness : Big
Codec ID : A_AC3
Duration : 1h 15mn
Bit rate mode : Constant
Bit rate : 640 Kbps
Channel(s) : 6 channels
Channel positions : Front: L C R, Side: L R, LFE
Sampling rate : 48.0 KHz
Compression mode : Lossy
Stream size : 347 MiB (16%)
Title : DVO (ZM-Show)
Language : Russian
Default : Yes
Forced : No
Audio #2
ID : 3
Format : AC-3
Format/Info : Audio Coding 3
Mode extension : CM (complete main)
Format settings, Endianness : Big
Codec ID : A_AC3
Duration : 1h 15mn
Bit rate mode : Constant
Bit rate : 640 Kbps
Channel(s) : 6 channels
Channel positions : Front: L C R, Side: L R, LFE
Sampling rate : 48.0 KHz
Compression mode : Lossy
Stream size : 347 MiB (16%)
Title : Original
Language : English
Default : No
Forced : No
Text #1
ID : 4
Format : UTF-8
Codec ID : S_TEXT/UTF8
Codec ID/Info : UTF-8 Plain Text
Title : Full
Language : Russian
Default : No
Forced : No
Text #2
ID : 5
Format : UTF-8
Codec ID : S_TEXT/UTF8
Codec ID/Info : UTF-8 Plain Text
Title : Full SDH
Language : English
Default : No
Forced : No
Menu
00:00:00.000 : en:00:00:00.000
00:09:13.803 : en:00:09:13.803
00:19:45.559 : en:00:19:45.559
00:29:25.555 : en:00:29:25.555
00:39:32.495 : en:00:39:32.495
00:49:10.990 : en:00:49:10.990
01:00:26.414 : en:01:00:26.414
01:09:52.105 : en:01:09:52.105
01:12:35.142 : en:01:12:35.142

Скриншоты | Rip vs Source





Source

_________________
Показать сообщения:    

Текущее время: Сегодня 10:16

Часовой пояс: GMT



Вы не можете начинать темы
Вы не можете отвечать на сообщения
Вы не можете редактировать свои сообщения
Вы не можете удалять свои сообщения
Вы не можете голосовать в опросах
Вы не можете прикреплять файлы к сообщениям
Вы не можете скачивать файлы