Важное объявление!
У Нас Все раздачи мультитрекерные, при нуле пиров в релизах, можете смело вставать на закачку!
 
Автор Сообщение

HUNTER

Стаж:
4 года 4 месяца
Сообщений:
56839

Репутация: 101

[+] [-]
Вне форума [Профиль] [ЛС]

Лесная братва
Over the Hedge
«Ребята, надо поделиться!»
Год выпуска: 2006
Страна: США
Жанр: мультфильм, комедия, приключения, семейный
Продолжительность: 01:23:13
Перевод:
Профессиональный (Дублированный)
Профессиональный (Двухголосый закадровый) - П. Гланц и И. Королёва
Профессиональный (Двухголосый закадровый) - Tycoon
Любительский (Двухголосый закадровый) - Электричка
субтитры: есть-Режиссёр: Тим Джонсон : Tim Johnson, Кэри Киркпатрик : Karey Kirkpatrick-Роли озвучивали: Брюс Уиллис, Стив Карелл, Гарри Шендлинг, Ванда Сайкс, Уильям Шетнер, Ник Нолти, Томас Хейден Чёрч, Эллисон Дженни, Юджин Леви, Кэтрин О’Хара
Роли дублировали: Гоша Куценко, Дмитрий Гранкин, Георгий Корольчук, Ирина Ракшина, Евгений Умаров-Описание: Пробудившаяся весной от зимней спячки черепаха Верн и ее лесные друзья обнаруживают, что на территории их обитания выросла высоченная живая изгородь. Находчивый енот ЭрДжей объясняет своим бестолковым товарищам, что мир, находящийся за изгородью, это «ворота в прекрасную жизнь», так как там обитают странные существа, называемые людьми, которые живут, чтобы есть, а не едят, чтобы жить.
Славящийся своей осторожностью и подозрительностью Верн хочет удержать лесную братию от искушения оказаться по ту сторону изгороди. Однако настырный ЭрДжей доказывает всем, что отходы человеческой жизнедеятельности — это настоящее сокровище для животных. Он убеждает своих собратьев, что следует отбросить страх и воспользоваться таким удачным соседством. В итоге ЭрДжей и Верн заключают дружеский союз и начинают наслаждаться плодами цивилизации…- релиз: -- Работа с WEB-DL и звуком -Azureus--Качество: WEB-DL 720p
Формат: MKV
Видео кодек: AVC
Аудио кодек: AC3
Видео: 1280x718 , 23,976 fps, ~3857 kbps avg, 0.175 bit/pixel
Аудио #1: [RUS] 48 kHz, AC3 Dolby Digital, 3/2 (L,C,R,l,r) + LFE ch, ~384 kbps avg - DUB
Аудио #2: [RUS] 48 kHz, AC3 Dolby Digital, 3/2 (L,C,R,l,r) + LFE ch, ~448 kbps avg - DVO - П. Гланц и И. Королёва
Аудио #3: [RUS] 48 kHz, AC3 Dolby Digital, 3/2 (L,C,R,l,r) + LFE ch, ~448 kbps avg - DVO - Tycoon
Аудио #4: [RUS] 48 kHz, AC3 Dolby Digital, 2/0 (L,R) ch, ~192 kbps kbps - DVO - Электричка
Аудио #5: [ENG] 48 kHz, AC3 Dolby Digital, 3/2 (L,C,R,l,r) + LFE ch, ~448 kbps avg
Аудио #6: [ENG] 48 kHz, AC3 Dolby Digital, 2/0 (L,R) ch, ~192 kbps kbps avg - coment
субтитры: русские (full, coment), , английские (full, SDH, coment)
навигация по главам: 16 глав (именные)

MediaInfo

Общее
Уникальный идентификатор : 173633919697950892875174061053746283900 (0x82A0AD311EB63CD39A44A638E413057C)
Полное имя : D:\Im\Лесная братва\Over the Hedge.2006.WEB-DL 720p.mkv
Формат : Matroska
Версия формата : Version 4 / Version 2
Размер файла : 3,52 Гбайт
Продолжительность : 1 ч. 23 м.
Общий поток : 6058 Кбит/сек
Название фильма : Over the Hedge.2006.WEB-DL 720p -Azureus-
Дата кодирования : UTC 2015-01-31 12:14:50
Программа кодирования : mkvmerge v7.5.0 ('Glass Culture') 32bit built on Jan 4 2015 16:37:25
Библиотека кодирования : libebml v1.3.1 + libmatroska v1.4.2
DURATION : 01:17:23.980000000
NUMBER_OF_FRAMES : 1395
NUMBER_OF_BYTES : 69471
_STATISTICS_WRITING_APP : mkvmerge v7.5.0 ('Glass Culture') 32bit built on Jan 4 2015 16:37:25
_STATISTICS_WRITING_DATE_UTC : 2015-01-31 12:14:50
_STATISTICS_TAGS : BPS DURATION NUMBER_OF_FRAMES NUMBER_OF_BYTES
Видео
Идентификатор : 1
Формат : AVC
Формат/Информация : Advanced Video Codec
Профиль формата : High@L3.1
Параметр CABAC формата : Нет
Параметр ReFrames формата : 2 кадра
Параметр GOP формата : N=1
Идентификатор кодека : V_MPEG4/ISO/AVC
Продолжительность : 1 ч. 23 м.
Битрейт : 3825 Кбит/сек
Ширина : 1280 пикселей
Высота : 718 пикселей
Соотношение сторон : 16:9
Частота кадров : 23,976 кадра/сек
Цветовое пространство : YUV
Субдискретизация насыщенности : 4:2:0
Битовая глубина : 8 бит
Тип развёртки : Прогрессивная
Бит/(Пиксели*Кадры) : 0.174
Размер потока : 2,22 Гбайт (63%)
Язык : English
Default : Да
Forced : Нет
Основные цвета : BT.709-5, BT.1361, IEC 61966-2-4, SMPTE RP177
Характеристики трансфера : BT.709-5, BT.1361
Коэффициенты матрицы : BT.709-5, BT.1361, IEC 61966-2-4 709, SMPTE RP177
Аудио #1
Идентификатор : 2
Формат : AC-3
Формат/Информация : Audio Coding 3
Расширение режима : CM (complete main)
Идентификатор кодека : A_AC3
Продолжительность : 1 ч. 23 м.
Вид битрейта : Постоянный
Битрейт : 384 Кбит/сек
Каналы : 6 каналов
Расположение каналов : Front: L C R, Side: L R, LFE
Частота : 48,0 КГц
Битовая глубина : 16 бит
Метод сжатия : С потерями
Размер потока : 229 Мбайт (6%)
Заголовок : DUB
Язык : Russian
Default : Да
Forced : Нет
Аудио #2
Идентификатор : 3
Формат : AC-3
Формат/Информация : Audio Coding 3
Расширение режима : CM (complete main)
Идентификатор кодека : A_AC3
Продолжительность : 1 ч. 23 м.
Вид битрейта : Постоянный
Битрейт : 448 Кбит/сек
Каналы : 6 каналов
Расположение каналов : Front: L C R, Side: L R, LFE
Частота : 48,0 КГц
Битовая глубина : 16 бит
Метод сжатия : С потерями
Размер потока : 267 Мбайт (7%)
Заголовок : DVO - П. Гланц и И. Королёва
Язык : Russian
Default : Нет
Forced : Нет
Аудио #3
Идентификатор : 4
Формат : AC-3
Формат/Информация : Audio Coding 3
Расширение режима : CM (complete main)
Идентификатор кодека : A_AC3
Продолжительность : 1 ч. 23 м.
Вид битрейта : Постоянный
Битрейт : 448 Кбит/сек
Каналы : 6 каналов
Расположение каналов : Front: L C R, Side: L R, LFE
Частота : 48,0 КГц
Битовая глубина : 16 бит
Метод сжатия : С потерями
Размер потока : 267 Мбайт (7%)
Заголовок : DVO - Tycoon
Язык : Russian
Default : Нет
Forced : Нет
Аудио #4
Идентификатор : 5
Формат : AC-3
Формат/Информация : Audio Coding 3
Расширение режима : CM (complete main)
Идентификатор кодека : A_AC3
Продолжительность : 1 ч. 23 м.
Вид битрейта : Постоянный
Битрейт : 192 Кбит/сек
Каналы : 2 канала
Расположение каналов : Front: L R
Частота : 48,0 КГц
Битовая глубина : 16 бит
Метод сжатия : С потерями
Размер потока : 114 Мбайт (3%)
Заголовок : DVO - Электричка
Язык : Russian
Default : Нет
Forced : Нет
Аудио #5
Идентификатор : 6
Формат : AC-3
Формат/Информация : Audio Coding 3
Расширение режима : CM (complete main)
Идентификатор кодека : A_AC3
Продолжительность : 1 ч. 23 м.
Вид битрейта : Постоянный
Битрейт : 448 Кбит/сек
Каналы : 6 каналов
Расположение каналов : Front: L C R, Side: L R, LFE
Частота : 48,0 КГц
Битовая глубина : 16 бит
Метод сжатия : С потерями
Размер потока : 267 Мбайт (7%)
Заголовок : ENG
Язык : English
Default : Нет
Forced : Нет
Аудио #6
Идентификатор : 7
Формат : AC-3
Формат/Информация : Audio Coding 3
Расширение режима : CM (complete main)
Идентификатор кодека : A_AC3
Продолжительность : 1 ч. 23 м.
Вид битрейта : Постоянный
Битрейт : 192 Кбит/сек
Каналы : 2 канала
Расположение каналов : Front: L R
Частота : 48,0 КГц
Битовая глубина : 16 бит
Метод сжатия : С потерями
Размер потока : 114 Мбайт (3%)
Заголовок : ENG - coment
Язык : English
Default : Нет
Forced : Нет
Текст #1
Идентификатор : 8
Формат : UTF-8
Идентификатор кодека : S_TEXT/UTF8
Идентификатор кодека/Информация : UTF-8 Plain Text
Заголовок : Rus Sub - full
Язык : Russian
Default : Нет
Forced : Нет
Текст #2
Идентификатор : 9
Формат : UTF-8
Идентификатор кодека : S_TEXT/UTF8
Идентификатор кодека/Информация : UTF-8 Plain Text
Заголовок : Rus Sub - coment
Язык : Russian
Default : Нет
Forced : Нет
Текст #3
Идентификатор : 10
Формат : UTF-8
Идентификатор кодека : S_TEXT/UTF8
Идентификатор кодека/Информация : UTF-8 Plain Text
Заголовок : Eng Sub - full
Язык : English
Default : Нет
Forced : Нет
Текст #4
Идентификатор : 11
Формат : UTF-8
Идентификатор кодека : S_TEXT/UTF8
Идентификатор кодека/Информация : UTF-8 Plain Text
Заголовок : Eng Sub - SDH
Язык : English
Default : Нет
Forced : Нет
Текст #5
Идентификатор : 12
Формат : UTF-8
Идентификатор кодека : S_TEXT/UTF8
Идентификатор кодека/Информация : UTF-8 Plain Text
Заголовок : Eng Sub - coment
Язык : English
Default : Нет
Forced : Нет
Меню
00:00:00.000 : en:Just Take What You Need
00:07:54.000 : en:It's Spring
00:10:15.000 : en:Let's Call It Steve
00:15:31.000 : en:Gateway To Suburbia
00:18:54.000 : en:Welcome To Surburbia
00:23:59.000 : en:RJ You Can Stay
00:27:43.000 : en:Rabid Squirrel
00:31:43.000 : en:Sugar Rush
00:34:16.000 : en:Ozzie's Performance
00:40:15.000 : en:The Food's Gone
00:50:46.000 : en:Here's The Plan
00:57:49.000 : en:Animals Are in the House
01:03:08.000 : en:RJ to the Rescue
01:09:04.000 : en:Go Hammy
01:13:57.000 : en:Welcome to the Family
01:15:29.000 : en:End Credits
____________________________________________
Стою на раздаче до 5 дней.
Просьба скачавшим как можно дольше не покидать раздачу!
ВСЕМ ПРИЯТНОГО ПРОСМОТРА!_________________________________________

_________________
Показать сообщения:    

Текущее время: Сегодня 21:25

Часовой пояс: GMT



Вы не можете начинать темы
Вы не можете отвечать на сообщения
Вы не можете редактировать свои сообщения
Вы не можете удалять свои сообщения
Вы не можете голосовать в опросах
Вы не можете прикреплять файлы к сообщениям
Вы не можете скачивать файлы