Важное объявление!
У Нас Все раздачи мультитрекерные, при нуле пиров в релизах, можете смело вставать на закачку!
 
Автор Сообщение

adeei

[Профиль] [ЛС]

Лепестки на ветру / Petals on the Wind--Год выпуска: 2014
Страна: США
Жанр: триллер, драма, мелодрама
Продолжительность: 01:28:01
Перевод: Одноголосый закадровый ViruseProject
Русские субтитры: нет-Режиссёр: Карен Монкрифф / Karen Moncrieff-В ролях: Хэзер Грэм, Роуз МакИвер, Вэйт Наш, Бейли Бюнтейн, Ник Сирси и др.-Описание: Данный фильм является продолжение «Цветы на чердаке». История будет происходить спустя десять лет после того как Кэти, Кристофер, и Кэрри бежали с чердака бабушки. «Лепестки на ветру» продолжает следить за бедственным положением семьи, когда они пытаются оставить свое отвратительное прошлое позади, но вскоре понимают, некоторые "секреты" похоронить нельзя...-Закадровое озвучание: Александр Харченко
Сведение звука, подготовка видео: viruse (Виталий Емельянов)-Смотреть ТРЕЙЛЕР фильма НА РУССКОМ на youtube
смотреть СЕМПЛ озвучки на youtube
скачать СЕМПЛ с multi-up-

-Качество: WEB-DLRip
Формат: AVI
Видео кодек: XviD
Аудио кодек: AC3
Видео: 720x400 (1.80:1), 23.976 fps, XviD build 50 ~2175 kbps avg, 0.32 bit/pixel
Аудио: 48 kHz, AC3 Dolby Digital, 2/0 (L,R) ch, ~192 kbps-

MediaInfo

D:\ОЗВУЧКА\СМИТ\Petals.On.The.Wind.2014.WEB-DLRip.ViruseProject.avi
General
Complete name : D:\ОЗВУЧКА\СМИТ\Petals.On.The.Wind.2014.WEB-DLRip.ViruseProject.avi
Format : AVI
Format/Info : Audio Video Interleave
File size : 1.46 GiB
Duration : 1h 28mn
Overall bit rate : 2 377 Kbps
Writing application : VirtualDubMod 1.5.10.2 (build 2540/release)
Writing library : VirtualDubMod build 2540/release
Video #0
ID : 0
Format : MPEG-4 Visual
Format profile : Advanced Simple@L5
Format settings, BVOP : 1
Format settings, QPel : No
Format settings, GMC : No warppoints
Format settings, Matrix : Default (MPEG)
Codec ID : XVID
Codec ID/Hint : XviD
Duration : 1h 28mn
Bit rate : 2 175 Kbps
Width : 720 pixels
Height : 400 pixels
Display aspect ratio : 16:9
Frame rate : 23.976 fps
Color space : YUV
Chroma subsampling : 4:2:0
Bit depth : 8 bits
Scan type : Progressive
Compression mode : Lossy
Bits/(Pixel*Frame) : 0.315
Stream size : 1.34 GiB (92%)
Writing library : XviD 1.2.1 (UTC 2008-12-04)
Audio #1
ID : 1
Format : AC-3
Format/Info : Audio Coding 3
Mode extension : CM (complete main)
Format settings, Endianness : Big
Codec ID : 2000
Duration : 1h 28mn
Bit rate mode : Constant
Bit rate : 192 Kbps
Channel count : 2 channels
Channel positions : Front: L R
Sampling rate : 48.0 KHz
Bit depth : 16 bits
Compression mode : Lossy
Stream size : 121 MiB (8%)
Alignment : Split accross interleaves
Interleave, duration : 42 ms (1.00 video frame)
Interleave, preload duration : 500 ms

Скриншоты

---Источник:
 
Показать сообщения:    

Текущее время: Сегодня 15:16

Часовой пояс: GMT



Вы не можете начинать темы
Вы не можете отвечать на сообщения
Вы не можете редактировать свои сообщения
Вы не можете удалять свои сообщения
Вы не можете голосовать в опросах
Вы не можете прикреплять файлы к сообщениям
Вы не можете скачивать файлы