Важное объявление!
У Нас Все раздачи мультитрекерные, при нуле пиров в релизах, можете смело вставать на закачку!
 
Автор Сообщение

HUNTER

Стаж:
4 года 4 месяца
Сообщений:
56755

Репутация: 101

[+] [-]
Вне форума [Профиль] [ЛС]

Лекарь: Ученик Авиценны / The Physician
Страна: Германия
Студия: UFA Cinema, ARD Degeto Film, Beta Cinema
Жанр: драма, приключения
Год выпуска: 2013
Продолжительность: 02:35:06
Перевод: Профессиональный (дублированный) Blu-Ray Rus
Cубтитры: русские, английские
Оригинальная аудиодорожка: английский
Режиссер: Филипп Штёльцль / Philipp Stolzl
В ролях: Том Пэйн, Бен Кингсли, Эмма Ригби, Стеллан Скарсгард, Оливье Мартинес, Элиас ЭмБарек, Майкл Джибсон, Стэнли Таунсенд, Майкл Маркус Морган, Адам Томас Райт
Описание: Англия, XI век. Мать десятилетнего Роба Коула умирает в страшных мучениях: никто не знает ни природы её болезни, ни лекарства против неё. Маленький Роб, потрясенный до глубины души, во что бы то ни стало стремится разгадать эту тайну.Ему суждено пройти долгий путь, от Англии до Персии, его учителями становятся сначала обыкновенный шарлатан Барбер, а потом — великий лекарь Авиценна. Мудрый учитель видит в Робе необыкновенный талант к медицине, но советует ему не спешить делать вещи, которые не соответствуют веку. Но Роб ни перед чем не останавливается в своем желании научиться спасать людей от смерти, и над его собственной жизнью нависает угроза, ведь он дважды пошел против предрассудков: использовал для научных исследований тело человека и полюбил женщину, отданную в жены другому.

Тип релиза: BDRip 720p [EbP]
Контейнер: MKV
Видео: AVC, 1280x544, 6340Kbps, 24.000 fps
Аудио 1: Russian: 48 kHz, AC3, 3/2 (L,C,R,l,r) + LFE ch, ~640.00 kbps avg |Blu-Ray Rus|
Аудио 2: English: 48 kHz, AC3, 3/2 (L,C,R,l,r) + LFE ch, ~640.00 kbps |Original|
Чаптеры: есть

x264 log

x264 [info]: frame I:1864 Avg QP:12.33 size:143381
x264 [info]: frame P:44681 Avg QP:14.39 size: 66604
x264 [info]: frame B:176807 Avg QP:16.20 size: 24293
x264 [info]: consecutive B-frames: 1.3% 1.1% 5.4% 22.3% 19.7% 35.4% 6.3% 2.3% 2.4% 1.1% 1.0% 1.7%

MediaInfo

General
Unique ID : 182092673586041885540785942396472969726 (0x88FDC5F51B70A640A128F9B5DAC0C9FE)
Complete name : D:\The.Physician.2013.720p.BluRay.DD5.1.x264-Talian-.mkv
Format : Matroska
Format version : Version 2
File size : 8.41 GiB
Duration : 2h 35mn
Overall bit rate : 7 763 Kbps
Movie name : The Physician-Talian-
Encoded date : UTC 2015-03-24 19:22:36
Writing application : mkvmerge v5.7.0 ('The Whirlwind') built on Jul 8 2012 20:08:51
Writing library : libebml v1.2.3 + libmatroska v1.3.0
Video
ID : 1
Format : AVC
Format/Info : Advanced Video Codec
Format profile : High@L4.1
Format settings, CABAC : Yes
Format settings, ReFrames : 12 frames
Codec ID : V_MPEG4/ISO/AVC
Duration : 2h 35mn
Bit rate : 6 328 Kbps
Width : 1 280 pixels
Height : 544 pixels
Display aspect ratio : 2.35:1
Frame rate : 24.000 fps
Color space : YUV
Chroma subsampling : 4:2:0
Bit depth : 8 bits
Scan type : Progressive
Bits/(Pixel*Frame) : 0.379
Stream size : 6.86 GiB (82%)
Title : EbP
Writing library : x264 core 142 r2431kMod ac76440
Encoding settings : cabac=1 / ref=12 / deblock=1:-3:-3 / analyse=0x3:0x133 / me=umh / subme=11 / psy=1 / fade_compensate=0.00 / psy_rd=1.05:0.00 / mixed_ref=1 / me_range=16 / chroma_me=1 / trellis=2 / 8x8dct=1 / cqm=0 / deadzone=21,11 / fast_pskip=0 / chroma_qp_offset=-2 / threads=6 / lookahead_threads=1 / sliced_threads=0 / nr=0 / decimate=0 / interlaced=0 / bluray_compat=0 / constrained_intra=0 / fgo=0 / bframes=11 / b_pyramid=2 / b_adapt=2 / b_bias=0 / direct=3 / weightb=1 / open_gop=0 / weightp=2 / keyint=250 / keyint_min=24 / scenecut=40 / intra_refresh=0 / rc=crf / mbtree=0 / crf=14.5000 / qcomp=0.60 / qpmin=0 / qpmax=69 / qpstep=4 / ip_ratio=1.40 / pb_ratio=1.30 / aq=3:0.75 / zones=55825,56091,crf=12/56170,56318,crf=12/63886,63994,crf=12/64031,64079,crf=12/69559,70052,crf=12/71495,71612,crf=12/71973,72042,crf=12/72963,73274,crf=12/75053,75290,crf=12/140926,141012,crf=12/141921,142212,crf=12/165801,165936,crf=12/178763,178855,crf=12/201952,202030,crf=12/214649,223351,crf=20
Language : English
Default : Yes
Forced : No
Audio #1
ID : 2
Format : AC-3
Format/Info : Audio Coding 3
Mode extension : CM (complete main)
Format settings, Endianness : Big
Codec ID : A_AC3
Duration : 2h 35mn
Bit rate mode : Constant
Bit rate : 640 Kbps
Channel(s) : 6 channels
Channel positions : Front: L C R, Side: L R, LFE
Sampling rate : 48.0 KHz
Bit depth : 16 bits
Compression mode : Lossy
Stream size : 710 MiB (8%)
Title : DUB-Blu-Ray Rus
Language : Russian
Default : Yes
Forced : No
Audio #2
ID : 3
Format : AC-3
Format/Info : Audio Coding 3
Mode extension : CM (complete main)
Format settings, Endianness : Big
Codec ID : A_AC3
Duration : 2h 35mn
Bit rate mode : Constant
Bit rate : 640 Kbps
Channel(s) : 6 channels
Channel positions : Front: L C R, Side: L R, LFE
Sampling rate : 48.0 KHz
Bit depth : 16 bits
Compression mode : Lossy
Stream size : 710 MiB (8%)
Title : Original
Language : English
Default : No
Forced : No
Text #1
ID : 4
Format : UTF-8
Codec ID : S_TEXT/UTF8
Codec ID/Info : UTF-8 Plain Text
Title : Sub
Language : Russian
Default : No
Forced : No
Text #2
ID : 5
Format : UTF-8
Codec ID : S_TEXT/UTF8
Codec ID/Info : UTF-8 Plain Text
Title : Sub
Language : English
Default : No
Forced : No
Menu
00:00:00.000 : en:00:00:00.000
00:14:53.708 : en:00:14:53.708
00:23:46.792 : en:00:23:46.792
00:32:22.750 : en:00:32:22.750
00:42:15.875 : en:00:42:15.875
00:53:59.458 : en:00:53:59.458
01:04:23.083 : en:01:04:23.083
01:14:37.750 : en:01:14:37.750
01:25:50.792 : en:01:25:50.792
01:36:40.250 : en:01:36:40.250
01:46:43.292 : en:01:46:43.292
01:55:46.250 : en:01:55:46.250
02:02:24.458 : en:02:02:24.458
02:12:18.667 : en:02:12:18.667
02:25:07.167 : en:02:25:07.167

Скриншоты

Source vs Encode



_________________
Показать сообщения:    

Текущее время: Сегодня 13:46

Часовой пояс: GMT



Вы не можете начинать темы
Вы не можете отвечать на сообщения
Вы не можете редактировать свои сообщения
Вы не можете удалять свои сообщения
Вы не можете голосовать в опросах
Вы не можете прикреплять файлы к сообщениям
Вы не можете скачивать файлы