Важное объявление!
У Нас Все раздачи мультитрекерные, при нуле пиров в релизах, можете смело вставать на закачку!
 
Автор Сообщение

HUNTER

Стаж:
4 года 4 месяца
Сообщений:
56722

Репутация: 101

[+] [-]
Вне форума [Профиль] [ЛС]

Лезвие бритвы / На краю лезвия / The Razor's Edge-
Год выпуска: 1946
Страна: США
Жанр: драма
Продолжительность: 02:24:58
Перевод 1: Профессиональный (многоголосый закадровый) Светла
Перевод 2: Профессиональный (двухголосый закадровый) РЕН ТВ
Оригинальная аудиодорожка: Английская
Cубтитры: Английские (полные, для слабослышащих)-Режиссер: Эдмунд Гулдинг / Edmund Goulding
В ролях: Тайрон Пауэр, Джин Тирни, Джон Пейн, Энн Бакстер, Клифтон Уэбб, Херберт Маршалл, Люсиль Уотсон, Фрэнк Латимор, Эльза Ланчестер, Фриц Кортнер-Описание:
Начало двадцатых годов прошлого века. Обеспеченный молодой человек по имени Лэрри Даррелл , в одночасье разрывает свои отношения с близкими людьми и, раздумав женится на своей давней подруге Изабель, решает искать смысл жизни в путешествиях в дальние страны. Поиски просвещения, приводят его в Гималаи. Насытившись впечатлениями, герой решает вернуться в родные пенаты, но он и не предполагает, что его возвращение сродни шагам по лезвию бритвы…-За Светлу спасибо bazil-mclaud, за РЕНТВ – palmeiras.
| Сэмпл-Качество: WEB-DL 720p
Контейнер: MKV
Видео: AVC, 960x720 (1.33:1), 23.976 fps, 3953 kbps
Аудио 1: Русский AC3 2.0, 48 kHz, 192 kbps — Светла
Аудио 2: Русский AC3 2.0, 48 kHz, 192 kbps — РЕН ТВ
Аудио 3: Английский AC3 2.0, 48 kHz, 192 kbps
Аудио 4: Английкий AAC 2.0, 48 kHz, 117 kbps
Формат субтитров: softsub (SRT)
СкриншотыMI
General
Unique ID : 192833831469704448026115982571594471858 (0x911271ED9B596E23A87E060CEC2E59B2)
Complete name : The.Razor's.Edge.1946.720p.WEB-DL.H.264.mkv
Format : Matroska
Format version : Version 2
File size : 4.71 GiB
Duration : 2h 24mn
Overall bit rate : 4 649 Kbps
Movie name : The Razor's Edge / На краю лезвия (1946) – RuTracker
Encoded date : UTC 2014-04-30 13:30:20
Writing application : mkvmerge v6.1.0 ('Old Devil') built on Mar 2 2013 14:32:37
Writing library : libebml v1.3.0 + libmatroska v1.4.0
Attachment : Yes
Video
ID : 1
Format : AVC
Format/Info : Advanced Video Codec
Format profile : Main@L3.1
Format settings, CABAC : No
Format settings, ReFrames : 2 frames
Codec ID : V_MPEG4/ISO/AVC
Duration : 2h 24mn
Width : 960 pixels
Height : 720 pixels
Display aspect ratio : 4:3
Frame rate mode : Constant
Frame rate : 23.976 fps
Color space : YUV
Chroma subsampling : 4:2:0
Bit depth : 8 bits
Scan type : Progressive
Language : English
Default : Yes
Forced : No
Color primaries : BT.709
Transfer characteristics : BT.709
Matrix coefficients : BT.709
Audio #1
ID : 2
Format : AC-3
Format/Info : Audio Coding 3
Mode extension : CM (complete main)
Format settings, Endianness : Big
Codec ID : A_AC3
Duration : 2h 24mn
Bit rate mode : Constant
Bit rate : 192 Kbps
Channel(s) : 2 channels
Channel positions : Front: L R
Sampling rate : 48.0 KHz
Bit depth : 16 bits
Compression mode : Lossy
Stream size : 199 MiB (4%)
Title : MVO – Светла
Language : Russian
Default : Yes
Forced : No
Audio #2
ID : 3
Format : AC-3
Format/Info : Audio Coding 3
Mode extension : CM (complete main)
Format settings, Endianness : Big
Codec ID : A_AC3
Duration : 2h 24mn
Bit rate mode : Constant
Bit rate : 192 Kbps
Channel(s) : 2 channels
Channel positions : Front: L R
Sampling rate : 48.0 KHz
Bit depth : 16 bits
Compression mode : Lossy
Stream size : 199 MiB (4%)
Title : MVO – РЕН ТВ
Language : Russian
Default : No
Forced : No
Audio #3
ID : 4
Format : AC-3
Format/Info : Audio Coding 3
Mode extension : CM (complete main)
Format settings, Endianness : Big
Codec ID : A_AC3
Duration : 2h 24mn
Bit rate mode : Constant
Bit rate : 192 Kbps
Channel(s) : 2 channels
Channel positions : Front: L R
Sampling rate : 48.0 KHz
Bit depth : 16 bits
Compression mode : Lossy
Stream size : 199 MiB (4%)
Title : Original (DVD)
Language : English
Default : No
Forced : No
Audio #4
ID : 5
Format : AAC
Format/Info : Advanced Audio Codec
Format profile : LC
Codec ID : A_AAC
Duration : 2h 24mn
Channel(s) : 2 channels
Channel positions : Front: L R
Sampling rate : 48.0 KHz
Compression mode : Lossy
Title : Original (iTunes)
Language : English
Default : No
Forced : No
Text #1
ID : 6
Format : UTF-8
Codec ID : S_TEXT/UTF8
Codec ID/Info : UTF-8 Plain Text
Language : English
Default : No
Forced : No
Text #2
ID : 7
Format : UTF-8
Codec ID : S_TEXT/UTF8
Codec ID/Info : UTF-8 Plain Text
Title : SDH
Language : English
Default : No
Forced : No
Menu
00:00:00.000 : en:Main Titles
00:01:34.000 : en:Dinner Party
00:08:06.000 : en:Ripples
00:11:23.000 : en:Survivor Guilt
00:18:21.000 : en:Checklist
00:22:05.000 : en:A Visit to Paris
00:26:35.000 : en:Asking Too Much
00:31:35.000 : en:Last Fling
00:41:06.000 : en:The Inevitable
00:45:56.000 : en:Running from God
00:51:55.000 : en:Razor's Edge
00:57:07.000 : en:Tragic Accident
01:00:31.000 : en:Infinite Beauty
01:07:10.000 : en:Catching Up
01:12:57.000 : en:Healing Powers
01:20:59.000 : en:Slumming
01:29:46.000 : en:Lapsed Purity
01:32:25.000 : en:Phone Call
01:34:34.000 : en:Noble Sacrifice
01:39:55.000 : en:At the Ritz
01:44:24.000 : en:Temptation
01:51:04.000 : en:The Search
01:56:40.000 : en:Sophie's Death
02:02:56.000 : en:Slighted
02:07:08.000 : en:RSVP Regrets
02:12:56.000 : en:Second Chances
02:18:41.000 : en:Awful Truth
02:22:29.000 : en:End Titles/Goodness

_________________
Показать сообщения:    

Текущее время: Сегодня 12:05

Часовой пояс: GMT



Вы не можете начинать темы
Вы не можете отвечать на сообщения
Вы не можете редактировать свои сообщения
Вы не можете удалять свои сообщения
Вы не можете голосовать в опросах
Вы не можете прикреплять файлы к сообщениям
Вы не можете скачивать файлы