Важное объявление!
У Нас Все раздачи мультитрекерные, при нуле пиров в релизах, можете смело вставать на закачку!
 
Автор Сообщение

HUNTER

Стаж:
4 года 4 месяца
Сообщений:
56790

Репутация: 101

[+] [-]
Вне форума [Профиль] [ЛС]

Ледяная комета 3D
Bing Fung: Chung Sang Chi Mun
Iceman

Год выпуска: 2014
Страна: Гонконг [Китай] (China 3D Digital Entertainment)
Жанр: Фантастика, Боевик, Комедия, История
Продолжительность: 1:44:13
Озвучивание: Любительское двухголосое закадровое - Елена Егорова и Франк Цветков [р/г Green Tea] (перевод - Эльза Нордж, Мария Беликова, Мирина Торлин)
Режиссер: Винг-Чеонг Лау / Wing-cheong Law
В ролях: Донни Ен (He Ying), Ван Баоцян (Sao), Ева Хуан (Xiao Mei), Юй Кан (Niehu), Саймон Ям, Хой-Панг Ло, Сует Лам, Сингх Хартихан Битто, Хо-Ман Чан, Сиу Ва Чан (Police officer), Жаклин Чонг-Описание: Капитана императорской гвардии времён династии Мин ошибочно обвиняют в убийстве и в сговоре с врагом, его бывшие товарищи гвардейцы отправляются за ним в погоню. Но их битва заканчивается тем, что все трое оказываются погребёнными на 300 лет под снегом сошедшей лавины.
Замороженных солдат, найденных филантропом-богачом, отправляют обратно в Гонконг для изучения, но те оттаивают и сбегают.
В ночь на Хэллоуин беглец находит убежище у выпившей и эмоционально истощённой барменши, и постепенно она помогает ему влиться в общество 21-го века.
Тем временем, у остальных гвардейцев свои планы: один до сих пор хочет выследить беглеца и придать его правосудию, а другой решает заработать себе имя в современном Гонконге.
-Доп. инфо: Яркость-контрастность ракурсов более-менее подравнял, в отличии от BD 3D (см. скрины сравнения внизу).
Русская дорога получена заменой центрального канала оригинальной дороги (полный синхрон между каналами, в отличие от имеющейся в рунете шестиканалки).-Премьера (мир): 17 апреля 2014
Бюджет: HKD 200 000 000

. .
-Качество: BDRip (by Ash61)
Контейнер: MKV
Формат 3D: Half OverUnder / Вертикальная анаморфная стереопара
Порядок ракурсов: левый ракурс первый
Видео кодек: x264
Аудио кодек: AC3-Видео: AVC / 23,976 fps / 1920х1080p / 11.1 Mbps
Аудио:
#1 - Русский / AC3 / 48 KHz / 5.1 ch / 640 Kbps (DVO - Green Tea) (сведение в 5.1 - Ash61)
#2 - Китайский / AC3 / 48 KHz / 5.1 ch / 640 Kbps (Original - BD 3D)
Субтитры: Внешние (SRT UTF-8) English Full (BD 3D)
MediaInfo
General
Unique ID : 198548814293115467107447267167055880015 (0x955F1C55FB3096AD8BC29B3ED3BB9F4F)
Complete name : E:\Iceman(2014)3D-halfOU(Ash61)DVO-GreenTea-5.1\Iceman(2014)3D-halfOU(Ash61)DVO-GreenTea-5.1.mkv
Format : Matroska
Format version : Version 2
File size : 9.22 GiB
Duration : 1h 44mn
Overall bit rate : 12.7 Mbps
Movie name : Ледяная комета 3D / Iceman / Bing Fung: Chung Sang Chi Mun (2014) 3D
Encoded date : UTC 2014-07-03 14:37:40
Writing application : mkvmerge v5.8.0 ('No Sleep / Pillow') built on Sep 2 2012 15:37:04
Writing library : libebml v1.2.3 + libmatroska v1.3.0
Video
ID : 1
Format : AVC
Format/Info : Advanced Video Codec
Format profile : High@L4.1
Format settings, CABAC : Yes
Format settings, ReFrames : 4 frames
Codec ID : V_MPEG4/ISO/AVC
Duration : 1h 44mn
Bit rate : 11.1 Mbps
Width : 1 920 pixels
Height : 1 080 pixels
Display aspect ratio : 16:9
Frame rate mode : Constant
Frame rate : 23.976 fps
Color space : YUV
Chroma subsampling : 4:2:0
Bit depth : 8 bits
Scan type : Progressive
Bits/(Pixel*Frame) : 0.224
Stream size : 8.11 GiB (88%)
Title : BDRip by Ash61
Writing library : x264 core 138 r2358 9e941d1
Encoding settings : cabac=1 / ref=4 / deblock=1:-3:-3 / analyse=0x3:0x113 / me=umh / subme=10 / psy=1 / psy_rd=1.00:0.15 / mixed_ref=1 / me_range=32 / chroma_me=1 / trellis=2 / 8x8dct=1 / cqm=0 / deadzone=21,11 / fast_pskip=1 / chroma_qp_offset=-3 / threads=12 / lookahead_threads=2 / sliced_threads=0 / nr=0 / decimate=1 / interlaced=0 / bluray_compat=0 / constrained_intra=0 / bframes=9 / b_pyramid=2 / b_adapt=2 / b_bias=0 / direct=3 / weightb=1 / open_gop=0 / weightp=2 / keyint=250 / keyint_min=23 / scenecut=40 / intra_refresh=0 / rc_lookahead=60 / rc=crf / mbtree=1 / crf=17.5 / qcomp=0.70 / qpmin=0 / qpmax=69 / qpstep=4 / vbv_maxrate=40000 / vbv_bufsize=30000 / crf_max=0.0 / nal_hrd=none / frame-packing=4 / ip_ratio=1.40 / aq=1:0.70
Language : Chinese
Default : Yes
Forced : No
Audio #1
ID : 2
Format : AC-3
Format/Info : Audio Coding 3
Mode extension : CM (complete main)
Format settings, Endianness : Big
Codec ID : A_AC3
Duration : 1h 44mn
Bit rate mode : Constant
Bit rate : 640 Kbps
Channel(s) : 6 channels
Channel positions : Front: L C R, Side: L R, LFE
Sampling rate : 48.0 KHz
Bit depth : 16 bits
Compression mode : Lossy
Stream size : 477 MiB (5%)
Title : Двухголосый закадровый - GreenTea (сведение в 5.1 - Ash61)
Language : Russian
Default : Yes
Forced : No
Audio #2
ID : 3
Format : AC-3
Format/Info : Audio Coding 3
Mode extension : CM (complete main)
Format settings, Endianness : Big
Codec ID : A_AC3
Duration : 1h 44mn
Bit rate mode : Constant
Bit rate : 640 Kbps
Channel(s) : 6 channels
Channel positions : Front: L C R, Side: L R, LFE
Sampling rate : 48.0 KHz
Bit depth : 16 bits
Compression mode : Lossy
Stream size : 477 MiB (5%)
Title : Original - BD 3D
Language : Chinese
Default : No
Forced : No
Menu
00:00:00.000 : :1
00:04:42.449 : :2
00:09:50.381 : :3
00:14:33.539 : :4
00:20:27.101 : :5
00:24:54.743 : :6
00:29:04.534 : :7
00:33:48.860 : :8
00:39:08.763 : :9
00:43:02.789 : :10
00:48:32.660 : :11
00:53:54.189 : :12
00:57:25.692 : :13
01:01:27.100 : :14
01:07:28.836 : :15
01:10:39.444 : :16
01:17:05.788 : :17
01:20:45.049 : :18
01:25:17.112 : :19
01:36:18.398 : :20
СкриншотыДля оценки 3Д - Анимированные скриныBD 3D vs. Данный рип
BD 3D (масштаб)

Данный рип (масштаб)
-BD 3D (масштаб)

Данный рип (масштаб)
-BD 3D (масштаб)

Данный рип (масштаб)

_________________
Показать сообщения:    

Текущее время: Сегодня 16:48

Часовой пояс: GMT



Вы не можете начинать темы
Вы не можете отвечать на сообщения
Вы не можете редактировать свои сообщения
Вы не можете удалять свои сообщения
Вы не можете голосовать в опросах
Вы не можете прикреплять файлы к сообщениям
Вы не можете скачивать файлы