Важное объявление!
У Нас Все раздачи мультитрекерные, при нуле пиров в релизах, можете смело вставать на закачку!
 
Автор Сообщение

HUNTER

Стаж:
4 года 4 месяца
Сообщений:
56808

Репутация: 101

[+] [-]
Вне форума [Профиль] [ЛС]

Ледовый путь дальнобойщиков / Ice Road Truckers-
Год выпуска: 2009
Страна: США, Канада
Жанр: документальный
Продолжительность: ~00:44:30 [серия]
Перевод: Профессиональный (двухголосый закадровый) Авто +
Русские субтитры: нет
Режиссер: Thom Beers, Adam Martin
Описание: Документальный сериал про дальнобойщиков, перевозящих негабаритные грузы всех типов в карьеры по добыванию золота и алмазов. Казалось бы всё так просто. Однако вся сложность в том, что работать они могут лишь зимой, когда озёра, через которые пролегает их дорога, замёрзшие. Т.е. Их дорога - это сплошной лёд.
Сэмпл: http://multi-up.com/938129
качество: DVB
формат: TS
Видео: MPEG2 | 720x576i (4:3) | 25.000 fps | ~2511 kbps | 0.242 bit/pix
Аудио: AC3 | 48KHz | 2.0 (Front: L R) | 384 kbps

Список выпусков/серий

9 Крути и жги
10 Пробег к океану
12 Гонка к финишу

MediaInfo

Общее
Идентификатор : 1 (0x1)
Полное имя : E:\VIDEOS\Авто+\Ice.Road.Truckers.S03.576i.DVB.DD2.0.MPEG2-CasStudio\Ice.Road.Truckers.S03E09.576i.DVB.DD2.0.MPEG2-CasStudio.ts
Формат : MPEG-TS
Размер файла : 961 Мбайт
Продолжительность : 43 м.
Режим общего битрейта : Переменный
Общий поток : 3061 Кбит/сек
Максимальный общий битрейт : 35,5 Мбит/сек
Видео
Идентификатор : 4113 (0x1011)
Идентификатор меню : 1 (0x1)
Формат : MPEG Video
Версия формата : Version 2
Профиль формата : Main@Main
Параметр BVOP формата : Нет
Параметр матрицы формата : По умолчанию
Параметр GOP формата : Variable
Идентификатор кодека : 2
Продолжительность : 43 м.
Вид битрейта : Переменный
Битрейт : 2521 Кбит/сек
Максимальный битрейт : 15,0 Мбит/сек
Ширина : 720 пикселей
Высота : 576 пикселей
Соотношение сторон : 4:3
Частота кадров : 25,000 кадров/сек
Стандарт вещания : PAL
Цветовое пространство : YUV
Субдискретизация насыщенности : 4:2:0
Битовая глубина : 8 бит
Тип развёртки : Чересстрочная
Порядок развёртки : Верхнее поле первое
Метод сжатия : С потерями
Бит/(Пиксели*Кадры) : 0.243
Временной код первого кадра : 00:00:00:00
Оригинал временного кода : Group of pictures header
Размер потока : 792 Мбайт (82%)
Аудио
Идентификатор : 4352 (0x1100)
Идентификатор меню : 1 (0x1)
Формат : AC-3
Формат/Информация : Audio Coding 3
Расширение режима : CM (complete main)
Параметр Endianness формата : Big
Идентификатор кодека : 129
Продолжительность : 43 м.
Вид битрейта : Постоянный
Битрейт : 384 Кбит/сек
Каналы : 2 канала
Расположение каналов : Front: L R
Частота : 48,0 КГц
Битовая глубина : 16 бит
Метод сжатия : С потерями
Задержка видео : -8 мс.
Размер потока : 121 Мбайт (13%)

Скриншоты


_________________
Показать сообщения:    

Текущее время: Сегодня 10:48

Часовой пояс: GMT



Вы не можете начинать темы
Вы не можете отвечать на сообщения
Вы не можете редактировать свои сообщения
Вы не можете удалять свои сообщения
Вы не можете голосовать в опросах
Вы не можете прикреплять файлы к сообщениям
Вы не можете скачивать файлы