Важное объявление!
У Нас Все раздачи мультитрекерные, при нуле пиров в релизах, можете смело вставать на закачку!
 
Автор Сообщение

HUNTER

Стаж:
4 года 4 месяца
Сообщений:
56848

Репутация: 101

[+] [-]
Вне форума [Профиль] [ЛС]

Ледовые пираты / Ледяные пираты / The Ice Pirates
Страна: США
Студия: Metro-Goldwyn-Mayer
Жанр: фантастика, боевик, комедия, приключения
Год выпуска: 1984
Продолжительность: 01:33:58
Перевод: Профессиональный (многоголосый закадровый) СВ-кадр по заказу ТНТ
Cубтитры: английские
Оригинальная аудиодорожка: английский
Режиссер: Стюарт Рэффил / Stewart Raffill
В ролях: Роберт Урих, Мэри Кросби, Майкл Д. Робертс, Анджелика Хьюстон, Джон Матушак, Рон Перлман, Джон Кэррадайн, Натали Кор, Джереми Уэст, Брюс Виленч
Описание: В начале четвертого тысячелетия в Галактике наступил сушняк — всю воду выпили. Перебиваются квасом и ракетным топливом. Но по воде скучают страшно, вплоть до рубки на мечах. Плюс боевые роботы где-то тут же бегают и мешают блистать космическим принцессам…
Доп. информация: Рип скачан с зарубежного трекера. Русская дорожка из раздачи formally отсюда.

Sample
Тип релиза: WEB-DL 720p
Контейнер: MKV
Видео: MPEG4 AVC Video, H264, 16:9, 1276x720, 23,976 fps, 4203 kbps
Аудио: Russian (AC3, 2 ch, 192 kbps, 16 bits, 48.0 KHz) - MVO ТНТ
Аудио 2: English (AC3, 2 ch, 192 kbps, 16 bits, 48.0 KHz) - оригинал
Формат субтитров: softsub (SRT)
MediaInfo
Общее
Уникальный идентификатор : 170509930548990046135729235850491232845 (0x804704A297BFCAF3875D4843767E824D)
Полное имя : E:\1\The.Ice.Pirates.1984.720p.WEB-DL.H.264.mkv
Формат : Matroska
Версия формата : Version 4 / Version 2
Размер файла : 3,07 Гбайт
Продолжительность : 1 ч. 33 м.
Общий поток : 4680 Кбит/сек
Дата кодирования : UTC 2014-05-19 11:47:09
Программа кодирования : mkvmerge v6.1.0 ('Old Devil') built on Mar 2 2013 14:32:37
Библиотека кодирования : libebml v1.3.0 + libmatroska v1.4.0
Видео
Идентификатор : 1
Формат : AVC
Формат/Информация : Advanced Video Codec
Профиль формата : High@L3.1
Параметр CABAC формата : Нет
Параметр ReFrames формата : 2 кадра
Идентификатор кодека : V_MPEG4/ISO/AVC
Продолжительность : 1 ч. 33 м.
Битрейт : 4203 Кбит/сек
Ширина : 1276 пикселей
Высота : 720 пикселей
Соотношение сторон : 16:9
Режим частоты кадров : Постоянный
Частота кадров : 23,976 кадра/сек
Цветовое пространство : YUV
Субдискретизация насыщенности : 4:2:0
Битовая глубина : 8 бит
Тип развёртки : Прогрессивная
Бит/(Пиксели*Кадры) : 0.191
Размер потока : 2,76 Гбайт (90%)
Язык : English
Default : Да
Forced : Нет
Основные цвета : BT.709
Характеристики трансфера : BT.709
Коэффициенты матрицы : BT.709
Аудио #1
Идентификатор : 2
Формат : AC-3
Формат/Информация : Audio Coding 3
Расширение режима : CM (complete main)
Параметр Endianness формата : Big
Идентификатор кодека : A_AC3
Продолжительность : 1 ч. 33 м.
Вид битрейта : Постоянный
Битрейт : 192 Кбит/сек
Каналы : 2 канала
Расположение каналов : Front: L R
Частота : 48,0 КГц
Битовая глубина : 16 бит
Метод сжатия : С потерями
Размер потока : 129 Мбайт (4%)
Язык : Russian
Default : Да
Forced : Нет
Аудио #2
Идентификатор : 3
Формат : AC-3
Формат/Информация : Audio Coding 3
Расширение режима : CM (complete main)
Параметр Endianness формата : Big
Идентификатор кодека : A_AC3
Продолжительность : 1 ч. 33 м.
Вид битрейта : Постоянный
Битрейт : 192 Кбит/сек
Каналы : 2 канала
Расположение каналов : Front: L R
Частота : 48,0 КГц
Битовая глубина : 16 бит
Метод сжатия : С потерями
Размер потока : 129 Мбайт (4%)
Язык : English
Default : Нет
Forced : Нет
Текст
Идентификатор : 4
Формат : UTF-8
Идентификатор кодека : S_TEXT/UTF8
Идентификатор кодека/Информация : UTF-8 Plain Text
Язык : English
Default : Нет
Forced : Нет
Меню
00:00:00.000 : en:Chapter 1
00:10:07.000 : en:Chapter 2
00:20:09.000 : en:Chapter 3
00:30:18.000 : en:Chapter 4
00:40:43.000 : en:Chapter 5
00:50:48.000 : en:Chapter 6
01:00:44.000 : en:Chapter 7
01:10:42.000 : en:Chapter 8
01:21:06.000 : en:Chapter 9
01:30:13.000 : en:Chapter 10
Скриншоты

_________________
Показать сообщения:    

Текущее время: Сегодня 03:47

Часовой пояс: GMT



Вы не можете начинать темы
Вы не можете отвечать на сообщения
Вы не можете редактировать свои сообщения
Вы не можете удалять свои сообщения
Вы не можете голосовать в опросах
Вы не можете прикреплять файлы к сообщениям
Вы не можете скачивать файлы
Наши партнеры: интернет магазин Ивановского трикотажа textilla.ru