Важное объявление!
У Нас Все раздачи мультитрекерные, при нуле пиров в релизах, можете смело вставать на закачку!
 
Автор Сообщение

HUNTER

Стаж:
4 года 4 месяца
Сообщений:
56765

Репутация: 101

[+] [-]
Вне форума [Профиль] [ЛС]

-Ледниковый Период: Погоня за яйцами / Ice Age: The Great Egg-Scapade-
Страна: США
Жанр: мультфильм
Продолжительность: 01:13:49
Год выпуска: 2016
Перевод: Профессиональный (дублированный) iTunes
Перевод: Профессиональный (дублированный) UKR iTunes
Оригинальная аудиодорожка: английский
Русские субтитры: есть-Режиссёр: Рикардо Кертис / Ricardo Curtis-Роли озвучивали: Блейк Андерсон, Лили Эстефан, Сет Грин, Габриэль Иглесиас, Дэнис Лири, Джон Легуизамо, Джош Пек, Куин Латифа, Рэй Романо, Шонн Уильям Скотт-Описание: Скрэт, Мэнни, Сид, Диего и другие доисторические герои Ледникового Периода в совершенно новом уморительном анимационном приключении! Новый бизнес Сида по высиживанию яиц успешно развивается, но когда подлый кролик –пират Сквинт крадет яйца, Мэнни, Диего и остальные отправляются в бесстрашную спасательную операцию , которой суждено стать первой в истории погоней за яйцами.- -Качество: WEB-DL 1080p
Формат: AVI
Видео: H.264 1916x1076 (16:9), 23.976 fps, 5 535 Kbps, 0.098 Bits/(Pixel*Frame)
Аудио: Russian 48 kHz, AC3 Dolby Digital, 3/2 (L,C,R,l,r) + LFE ch, ~384 kbps |Дубляж, iTunes|
Аудио: Ukrainian 48 kHz, AAC, 2/0 (L,R) ch, ~160.00 kbps avg |Дубляж, iTunes|
Аудио: English: 48 kHz, AAC, 2/0 (L,R) ch, ~160.00 kbps avg |Оригинал|
Субтитры: Russian (Full-length, Forced - iTunes), Ukrainian (Full-length, Forced - iTunes)-

Подробные технические данные

GeneralUnique ID : 201755501504773535342582915291460919701 (0x97C8B238CE55DEA9A02769D186A3E195)Complete name : D:\Фильмы\Pogonya.za.yaycamiWEB_DL_1080p.mkvFormat : MatroskaFormat version : Version 4 / Version 2File size : 2.85 GiBDuration : 1h 13mnOverall bit rate : 5 535 KbpsMovie name : BELKA_WEB_DL_1080p-BLUEBIRDEncoded date : UTC 2016-03-20 18:54:30Writing application : mkvmerge v7.1.0 ('Good Love') 64bit built on Jul 27 2014 13:06:55Writing library : libebml v1.3.0 + libmatroska v1.4.1
VideoID : 1Format : AVCFormat/Info : Advanced Video CodecFormat profile : High@L4Format settings, CABAC : YesFormat settings, ReFrames : 4 framesCodec ID : V_MPEG4/ISO/AVCDuration : 1h 13mnBit rate : 4 847 KbpsWidth : 1 916 pixelsHeight : 1 076 pixelsDisplay aspect ratio : 16:9Frame rate mode : ConstantFrame rate : 23.976 (23976/1000) fpsColor space : YUVChroma subsampling : 4:2:0Bit depth : 8 bitsScan type : ProgressiveBits/(Pixel*Frame) : 0.098Stream size : 2.50 GiB (88%)Title : BELKA_WEB_DL_1080p-BLUEBIRDLanguage : EnglishDefault : YesForced : NoColor range : LimitedColor primaries : BT.709Transfer characteristics : BT.709Matrix coefficients : BT.709
Audio #1ID : 2Format : AC-3Format/Info : Audio Coding 3Mode extension : CM (complete main)Format settings, Endianness : BigCodec ID : A_AC3Duration : 1h 12mnBit rate mode : ConstantBit rate : 384 KbpsChannel(s) : 6 channelsChannel positions : Front: L C R, Side: L R, LFESampling rate : 48.0 KHzFrame rate : 31.250 fps (1536 spf)Compression mode : LossyStream size : 199 MiB (7%)Title : [DUB] DD 5.1 @ 384 kbpsLanguage : RussianDefault : YesForced : No
Audio #2ID : 3Format : AACFormat/Info : Advanced Audio CodecFormat profile : LCCodec ID : A_AACDuration : 1h 12mnBit rate : 157 KbpsChannel(s) : 2 channelsChannel positions : Front: L RSampling rate : 48.0 KHzFrame rate : 46.875 fps (1024 spf)Compression mode : LossyStream size : 81.2 MiB (3%)Title : [DUB] AAC @ 160 kbpsLanguage : UkrainianDefault : NoForced : No
Audio #3ID : 4Format : AACFormat/Info : Advanced Audio CodecFormat profile : LCCodec ID : A_AACDuration : 1h 12mnBit rate : 156 KbpsChannel(s) : 2 channelsChannel positions : Front: L RSampling rate : 48.0 KHzFrame rate : 46.875 fps (1024 spf)Compression mode : LossyStream size : 81.1 MiB (3%)Title : [ORIGINAL] AAC @ 160 kbpsLanguage : EnglishDefault : NoForced : No
Text #1ID : 5Format : UTF-8Codec ID : S_TEXT/UTF8Codec ID/Info : UTF-8 Plain TextDuration : 1h 11mnBit rate : 74 bpsCount of elements : 674Stream size : 39.2 KiB (0%)Title : Full-lengthLanguage : RussianDefault : NoForced : No
Text #2ID : 6Format : UTF-8Codec ID : S_TEXT/UTF8Codec ID/Info : UTF-8 Plain TextDuration : 1h 11mnBit rate : 76 bpsCount of elements : 688Stream size : 40.1 KiB (0%)Title : Full-lengthLanguage : UkrainianDefault : NoForced : No
Text #3ID : 7Format : UTF-8Codec ID : S_TEXT/UTF8Codec ID/Info : UTF-8 Plain TextDuration : 1h 11mnBit rate : 74 bpsCount of elements : 674Stream size : 39.2 KiB (0%)Title : ForcedLanguage : RussianDefault : YesForced : No
Text #4ID : 8Format : UTF-8Codec ID : S_TEXT/UTF8Codec ID/Info : UTF-8 Plain TextDuration : 1h 11mnBit rate : 17 bpsCount of elements : 180Stream size : 9.28 KiB (0%)Title : ForcedLanguage : UkrainianDefault : NoForced : No
Menu00:00:00.000 : en:100:02:37.532 : en:200:05:22.154 : en:300:07:50.677 : en:400:09:15.720 : en:500:12:22.698 : en:600:17:46.646 : en:700:21:25.990 : en:800:24:32.593 : en:900:29:36.772 : en:1000:33:33.091 : en:1100:38:19.836 : en:1200:45:28.014 : en:1300:48:09.425 : en:1400:50:43.454 : en:1501:03:58.791 : en:16
-

Скриншоты

-

_________________
Показать сообщения:    

Текущее время: Сегодня 01:52

Часовой пояс: GMT



Вы не можете начинать темы
Вы не можете отвечать на сообщения
Вы не можете редактировать свои сообщения
Вы не можете удалять свои сообщения
Вы не можете голосовать в опросах
Вы не можете прикреплять файлы к сообщениям
Вы не можете скачивать файлы