Важное объявление!
У Нас Все раздачи мультитрекерные, при нуле пиров в релизах, можете смело вставать на закачку!
 
Автор Сообщение

HUNTER

Стаж:
4 года 4 месяца
Сообщений:
56765

Репутация: 101

[+] [-]
Вне форума [Профиль] [ЛС]

Ледниковый период 4: Континентальный дрейф / Ice Age: Continental Drift--
Год выпуска: 2012
Страна: США
Жанр: мультфильм, комедия, приключения, семейный
Продолжительность: 01:27:45.218
Перевод: профессиональный (полное дублирование)
Оригинальная аудиодорожка: английский
Русские субтитры: есть
Навигация по главам: есть-Режиссеры: Стив Мартино / Steve Martino, Майк Тёрмайер / Mike Thurmeier-Роли озвучивали:
Рэй Романо (Manny, озвучка), Джон Легуизамо (Sid, озвучка), Куин Латифа (Ellie, озвучка), Дэнис Лири (Diego, озвучка), Джош Пек (Eddie, озвучка), Питер Динклэйдж (Captain Gutt, озвучка), Кеке Палмер (Peaches, озвучка), Дженнифер Лопез (Shira, озвучка), Ник Фрост (Flynn, озвучка), Азиз Ансари (Squint, озвучка), Джой Бехар (Eunice, озвучка), Кристофер Кэмпбелл (Creature Siren / Various, озвучка)-Дублёры: Степан Старчиков (Manny), Антон Комолов (Sid), Ольга Шелест (Ellie), Александр Груздев (Diego), Илья Бледный (Eddie), Иван Охлобыстин (Captain Gutt), Вероника Саркисова (Peaches), Альбина Джанабаева (Shira), Александр Невский (Flynn), Даниил Эльдаров (Marshall; Gupta), Полина Быстрицкая (Katie), Пётр Иващенко-Описание:
После приключений под землей прошло семь лет. Случился дрейф континентов. Главные герои мультфильма, отделённые от стада, вынуждены использовать айсберг в качестве плота.
Они пересекают океан и попадают в неизвестные им ранее земли с экзотическими животными и пиратами, враждебно настроенными к ним.
Скрэту удаётся получить свой жёлудь, но он перемещается в новые для него земли.-Доп. информация: Kinopoisk | IMDB | Sample | | MPAA: PG - Рекомендуется присутствие родителей-Качество | Исходник: BDRip 1080p За исходник - Спасибо - DFCbit
Контейнер: MKV
Видео кодек: H.264
Аудио кодек: DTS, AС3
Видео: H.264, 1920x800, 23.976 fps, ~11200 kbps, Bits/(Pixel*Frame):0.304 - (Локализованный видеоряд)
Аудио 1: Русский: 48 kHz, DTS, 3/2 (L,C,R,l,r) + LFE ch, ~768 kbps - Дубляж | BD CEE
Аудио 2: Украинский: 48 kHz, AC3, 3/2 (L,C,R,l,r) + LFE ch, ~448 kbps - Дубляж | BD CEE
Аудио 3: Английский: 48 kHz, DTS, 3/2 (L,C,R,l,r) + LFE ch, ~1509 kbps
Формат субтитров: softsub (SRT) | русские (финальная песня - с BD CEE), русские (полные - с BD CEE), украинские (финальная песня - с BD CEE), украинские (полные - с BD CEE), английские (SDH и обычные)

Скриншоты

-Rip vs Sourse Rip vs Sourse

MediaInfo | x264

x264

x264 [info]: frame I:1207 Avg QP:14.08 size:283688x264 [info]: frame P:33525 Avg QP:16.59 size: 97806x264 [info]: frame B:91507 Avg QP:18.45 size: 40976x264 [info]: consecutive B-frames: 2.5% 7.2% 5.7% 62.3% 9.5% 10.4% 1.6% 0.9%x264 [info]: mb I I16..4: 21.6% 45.4% 32.9%x264 [info]: mb P I16..4: 4.1% 17.8% 3.6% P16..4: 26.5% 25.4% 9.5% 3.0% 0.3% skip: 9.8%x264 [info]: mb B I16..4: 1.0% 3.2% 0.6% B16..8: 30.5% 17.4% 2.7% direct:10.6% skip:34.1% L0:34.9% L1:40.1% BI:25.1%x264 [info]: 8x8 transform intra:67.0% inter:37.7%x264 [info]: direct mvs spatial:97.0% temporal:3.0%x264 [info]: coded y,uvDC,uvAC intra: 88.8% 85.5% 64.4% inter: 34.6% 27.1% 10.8%x264 [info]: i16 v,h,dc,p: 9% 12% 25% 54%x264 [info]: i8 v,h,dc,ddl,ddr,vr,hd,vl,hu: 9% 13% 9% 9% 11% 11% 12% 11% 15%x264 [info]: i4 v,h,dc,ddl,ddr,vr,hd,vl,hu: 9% 13% 13% 7% 12% 11% 12% 9% 13%x264 [info]: i8c dc,h,v,p: 35% 28% 18% 19%x264 [info]: Weighted P-Frames: Y:1.4% UV:1.1%x264 [info]: ref P L0: 65.0% 8.8% 14.8% 6.4% 4.7% 0.3% 0.0%x264 [info]: ref B L0: 88.9% 8.8% 1.7% 0.5%x264 [info]: ref B L1: 96.5% 3.5%x264 [info]: kb/s:11199.40
GeneralUnique ID : 246444775181639163056624305533704209005 (0xB9678986FD09799DBED8C5F14480026D)Complete name : Ice.Age.Continental.Drift.2012.BDRip.1080p.barm.mkvFormat : MatroskaFormat version : Version 2File size : 8.54 GiBDuration : 1h 27mnOverall bit rate : 13.9 MbpsMovie name : Ice Age: Continental Drift 2012Encoded date : UTC 2012-11-03 17:08:47Writing application : mkvmerge v5.8.0 ('No Sleep / Pillow') built on Sep 2 2012 15:37:04Writing library : libebml v1.2.3 + libmatroska v1.3.0Attachment : Yes
VideoID : 1Format : AVCFormat/Info : Advanced Video CodecFormat profile : High@L4.1Format settings, CABAC : YesFormat settings, ReFrames : 5 framesCodec ID : V_MPEG4/ISO/AVCDuration : 1h 27mnBit rate : 11.2 MbpsWidth : 1 920 pixelsHeight : 800 pixelsDisplay aspect ratio : 2.40:1Frame rate mode : ConstantFrame rate : 23.976 fpsColor space : YUVChroma subsampling : 4:2:0Bit depth : 8 bitsScan type : ProgressiveBits/(Pixel*Frame) : 0.304Stream size : 6.71 GiB (79%)Title : Ice Age: Continental DriftWriting library : x264 core 128 r2216 198a7eaEncoding settings : cabac=1 / ref=5 / deblock=1:-1:-1 / analyse=0x3:0x133 / me=umh / subme=11 / psy=1 / psy_rd=0.80:0.00 / mixed_ref=1 / me_range=48 / chroma_me=1 / trellis=2 / 8x8dct=1 / cqm=0 / deadzone=21,11 / fast_pskip=0 / chroma_qp_offset=-2 / threads=6 / lookahead_threads=1 / sliced_threads=0 / nr=0 / decimate=0 / interlaced=0 / bluray_compat=0 / constrained_intra=0 / bframes=7 / b_pyramid=2 / b_adapt=2 / b_bias=0 / direct=3 / weightb=1 / open_gop=0 / weightp=2 / keyint=250 / keyint_min=23 / scenecut=40 / intra_refresh=0 / rc_lookahead=60 / rc=2pass / mbtree=0 / bitrate=11200 / ratetol=1.0 / qcomp=0.70 / qpmin=0 / qpmax=69 / qpstep=4 / cplxblur=20.0 / qblur=0.5 / vbv_maxrate=50000 / vbv_bufsize=62500 / nal_hrd=none / ip_ratio=1.40 / pb_ratio=1.25 / aq=2:0.70Language : EnglishDefault : YesForced : NoMatrix coefficients : BT.709
Audio #1ID : 2Format : DTSFormat/Info : Digital Theater SystemsCodec ID : A_DTSDuration : 1h 27mnBit rate mode : ConstantBit rate : 755 KbpsChannel(s) : 6 channelsChannel positions : Front: L C R, Side: L R, LFESampling rate : 48.0 KHzBit depth : 24 bitsCompression mode : LossyStream size : 474 MiB (5%)Title : Dubljaz, 48 kHz, DTS, 3/2 (L,C,R,l,r) + LFE ch, ~768 kbpsLanguage : RussianDefault : YesForced : No
Audio #2ID : 3Format : AC-3Format/Info : Audio Coding 3Mode extension : CM (complete main)Format settings, Endianness : BigCodec ID : A_AC3Duration : 1h 27mnBit rate mode : ConstantBit rate : 448 KbpsChannel(s) : 6 channelsChannel positions : Front: L C R, Side: L R, LFESampling rate : 48.0 KHzBit depth : 16 bitsCompression mode : LossyStream size : 281 MiB (3%)Title : Dubljaz, 48 kHz, AC3, 3/2 (L,C,R,l,r) + LFE ch, ~ 448.00 kbpsLanguage : UkrainianDefault : NoForced : No
Audio #3ID : 4Format : DTSFormat/Info : Digital Theater SystemsCodec ID : A_DTSDuration : 1h 27mnBit rate mode : ConstantBit rate : 1 510 KbpsChannel(s) : 6 channelsChannel positions : Front: L C R, Side: L R, LFESampling rate : 48.0 KHzBit depth : 24 bitsCompression mode : LossyStream size : 948 MiB (11%)Title : Original, 48 kHz, DTS, 3/2 (L,C,R,l,r) + LFE ch, ~1509 kbpsLanguage : EnglishDefault : NoForced : No
Text #1ID : 5Format : UTF-8Codec ID : S_TEXT/UTF8Codec ID/Info : UTF-8 Plain TextTitle : ForcedLanguage : RussianDefault : YesForced : No
Text #2ID : 6Format : UTF-8Codec ID : S_TEXT/UTF8Codec ID/Info : UTF-8 Plain TextLanguage : RussianDefault : NoForced : No
Text #3ID : 7Format : UTF-8Codec ID : S_TEXT/UTF8Codec ID/Info : UTF-8 Plain TextTitle : ForcedLanguage : UkrainianDefault : NoForced : No
Text #4ID : 8Format : UTF-8Codec ID : S_TEXT/UTF8Codec ID/Info : UTF-8 Plain TextLanguage : UkrainianDefault : NoForced : No
Text #5ID : 9Format : UTF-8Codec ID : S_TEXT/UTF8Codec ID/Info : UTF-8 Plain TextTitle : SDHLanguage : EnglishDefault : NoForced : No
Text #6ID : 10Format : UTF-8Codec ID : S_TEXT/UTF8Codec ID/Info : UTF-8 Plain TextLanguage : EnglishDefault : NoForced : No
Menu00:00:00.000 : en:Chapter 100:03:25.038 : en:Chapter 200:05:08.225 : en:Chapter 300:09:34.407 : en:Chapter 400:13:09.705 : en:Chapter 500:15:56.330 : en:Chapter 600:18:23.644 : en:Chapter 700:22:24.718 : en:Chapter 800:25:57.556 : en:Chapter 900:29:18.965 : en:Chapter 1000:32:58.601 : en:Chapter 1100:36:15.381 : en:Chapter 1200:38:42.653 : en:Chapter 1300:43:49.710 : en:Chapter 1400:45:30.644 : en:Chapter 1500:49:39.977 : en:Chapter 1600:53:50.477 : en:Chapter 1700:57:23.857 : en:Chapter 1801:02:32.040 : en:Chapter 1901:08:09.335 : en:Chapter 2001:11:11.475 : en:Chapter 2101:13:15.641 : en:Chapter 2201:16:54.401 : en:Chapter 2301:19:24.634 : en:Chapter 24

_________________
Показать сообщения:    

Текущее время: Сегодня 03:41

Часовой пояс: GMT



Вы не можете начинать темы
Вы не можете отвечать на сообщения
Вы не можете редактировать свои сообщения
Вы не можете удалять свои сообщения
Вы не можете голосовать в опросах
Вы не можете прикреплять файлы к сообщениям
Вы не можете скачивать файлы